<?xml version="1.0" standalone="no"?>
<!DOCTYPE svg PUBLIC "-//W3C//DTD SVG 1.1//EN" "http://www.w3.org/Graphics/SVG/1.1/DTD/svg11.dtd">
<svg xmlns="http://www.w3.org/2000/svg">
<defs >
<font id="PlayfairDisplay" horiz-adv-x="575" ><font-face
    font-family="Playfair Display"
    units-per-em="1000"
    panose-1="0 0 5 0 0 0 0 0 0 0"
    ascent="1082"
    descent="-251"
    alphabetic="0" />
<glyph unicode=" " glyph-name="space" horiz-adv-x="249" />
<glyph unicode="!" glyph-name="exclam" horiz-adv-x="262" d="M151 782T164 768T177 726Q177 674 163 548Q151 426 146 352T140 196H122Q122 277 117 351T99 548Q85 674 85 726Q85 755 97 768T131 782Q151 782 164 768ZM157 114T176 95T195 50Q195 24 176 5T131
-14Q105 -14 86 5T67 50Q67 76 86 95T131 114Q157 114 176 95Z" />
<glyph unicode="&quot;" glyph-name="quotedbl" horiz-adv-x="298" d="M110 730T120 718T131 684Q131 648 125 611T118 566Q111 530 102 468H88Q81 517 73 558Q67 592 63 623T59 683Q59 704 69 716T95 730Q110 730 120 718ZM219 730T229 718T240 684Q240 648 234
611T227 566Q220 530 211 468H197Q190 517 182 558Q176 592 172 623T168 683Q168 704 178 716T204 730Q219 730 229 718Z" />
<glyph unicode="#" glyph-name="numbersign" horiz-adv-x="637" d="M438 434L406 267H553L549 247H402L374 101H354L382 247H215L187 101H167L195 247H48L52 267H199L231 434H85L88 454H235L264 602H284L255 454H422L451 602H471L442 454H589L586 434H438ZM418
434H251L219 267H386L418 434Z" />
<glyph unicode="$" glyph-name="dollar" horiz-adv-x="523" d="M482 97T436 49T316 -11V-132H296V-13Q287 -14 270 -14Q254 -14 232 -12V-132H212V-9Q188 -4 170 3T133 23Q111 37 99 37Q90 37 85 27T77 -7H54Q58 48 58 233H81Q87 148 118 89T212 13V337Q137 384
98 430T59 546Q59 620 102 663T212 717V840H232V719H247Q268 719 296 715V840H316V710Q340 701 369 682Q391 668 403 668Q412 668 417 678T425 712H448Q443 654 443 508H420Q415 571 390 620T316 689V392Q373 356 407 327T462 262T482 176Q482 97 436 49ZM248 700T232
698V444Q245 435 273 419L296 405V695Q276 700 256 700Q248 700 232 698ZM134 543T154 514T212 458V693Q176 682 155 653T134 584Q134 543 154 514ZM280 6T296 9V284Q282 294 237 322L232 325V8Q252 6 263 6Q280 6 296 9ZM351 29T372 60T393 139Q393 178 374 209T316
270V15Q351 29 372 60Z" />
<glyph unicode="%" glyph-name="percent" horiz-adv-x="742" d="M679 811L94 -55L75 -42L660 824L679 811ZM252 761T292 718T333 598Q333 523 291 477T184 430Q116 430 76 473T35 593Q35 667 77 714T184 761Q252 761 292 718ZM105 743T105 594Q105 522 126 485T186
448Q262 448 262 596Q262 668 241 705T182 743Q105 743 105 594ZM624 317T664 274T705 154Q705 79 663 33T556 -14Q488 -14 448 29T407 149Q407 223 449 270T556 317Q624 317 664 274ZM477 299T477 150Q477 78 498 41T558 4Q634 4 634 152Q634 224 613 261T554
299Q477 299 477 150Z" />
<glyph unicode="&amp;" glyph-name="ampersand" horiz-adv-x="837" d="M734 722T775 686T817 587Q817 539 791 504T722 447Q684 429 574 395Q630 371 656 327T683 225Q683 163 646 108T540 20T378 -14Q291 -14 217 16T98 103T54 235Q54 301 86 346T161 415T239
448Q190 469 164 504T138 577Q138 610 157 638T215 684T307 702Q374 702 411 672Q429 657 438 639T448 603Q448 579 431 565T392 550Q371 550 356 563T340 600Q340 622 355 637T393 655Q388 668 368 677T317 687Q265 687 233 656T201 568Q201 501 252 454Q287 460
314 460Q332 460 343 454T354 437Q354 428 347 423T326 418Q310 418 293 424T253 440Q123 401 123 276Q123 209 158 160T254 86T391 60Q462 60 522 82T618 146T654 243Q654 283 633 324T553 388Q475 364 438 350Q396 334 373 314T350 263Q350 227 379 205T442 183Q459
183 479 189T502 205Q483 209 469 221T455 256Q455 280 470 294T510 308Q534 308 548 293T563 254Q563 214 526 191T444 168Q395 168 358 197T320 285Q320 336 354 371T458 431L529 452Q589 469 629 482T702 510Q750 532 769 555T788 606Q788 648 754 677T672 707Q647
707 642 698Q655 692 662 679T670 652Q670 631 654 617T614 603Q593 603 577 616T561 653Q561 689 594 705T671 722Q734 722 775 686Z" />
<glyph unicode="&apos;" glyph-name="quotesingle" horiz-adv-x="189" d="M110 730T120 718T131 684Q131 648 125 611T118 566Q111 530 102 468H88Q81 517 73 558Q67 592 63 623T59 683Q59 704 69 716T95 730Q110 730 120 718Z" />
<glyph unicode="(" glyph-name="parenleft" horiz-adv-x="294" d="M159 710T102 586T44 312Q44 162 101 38T264 -182L278 -169Q197 -74 163 41T128 312Q128 468 162 583T278 793L264 806Q159 710 102 586Z" />
<glyph unicode=")" glyph-name="parenright" horiz-adv-x="294" d="M135 710T192 586T250 312Q250 162 193 38T30 -182L16 -169Q97 -74 131 41T166 312Q166 468 132 583T16 793L30 806Q135 710 192 586Z" />
<glyph unicode="*" glyph-name="asterisk" horiz-adv-x="492" d="M433 453T433 429Q433 420 428 412Q419 396 400 396Q385 396 364 408Q349 417 331 433T294 469L249 513Q255 487 264 457Q283 388 284 361Q283 333 272 320T245 307Q230 307 220 320T210 361Q210
378 215 403T229 457Q236 479 244 513Q244 513 204 473Q183 452 164 434T129 407Q110 396 94 396Q72 396 63 413Q59 420 59 428Q59 450 92 471Q107 480 127 486T182 502Q213 509 240 517Q195 530 181 533Q154 541 130 548T91 564Q59 583 59 607Q59 616 64 624Q73
640 92 640Q107 640 128 628Q143 619 162 602T201 564Q219 545 243 522L228 578Q218 614 214 635T209 675Q209 703 220 716T246 729Q261 729 271 716T282 675Q282 658 277 633T263 579Q256 557 248 523Q248 523 288 563Q309 584 328 602T363 629Q382 640 398 640Q421
640 429 623Q433 616 433 608Q433 584 400 565Q385 556 365 550T310 534Q279 527 252 519Q298 506 311 503Q338 495 362 488T401 472Q433 453 433 429Z" />
<glyph unicode="+" glyph-name="plus" horiz-adv-x="587" d="M312 370H544V340H312V105H276V340H43V370H276V606H312V370Z" />
<glyph unicode="," glyph-name="comma" horiz-adv-x="261" d="M165 114T185 82Q202 55 202 16Q202 -34 177 -74T99 -138L90 -120Q121 -107 143 -79T166 -22Q166 -10 163 -1Q147 -14 126 -14Q99 -14 81 3T62 50Q62 77 80 95T126 114Q165 114 185 82Z" />
<glyph unicode="-" glyph-name="hyphen" horiz-adv-x="499" d="M430 240H69V298H430V240Z" />
<glyph unicode="." glyph-name="period" horiz-adv-x="252" d="M152 114T171 95T190 50Q190 24 171 5T126 -14Q100 -14 81 5T62 50Q62 76 81 95T126 114Q152 114 171 95Z" />
<glyph unicode="/" glyph-name="slash" horiz-adv-x="372" d="M67 -14H34L306 722H339L67 -14Z" />
<glyph unicode="0" glyph-name="zero" horiz-adv-x="600" d="M375 529T430 497T516 404T547 266Q547 186 515 123T426 23T294 -14Q225 -14 170 18T84 111T52 250Q52 329 83 392T172 492T305 529Q375 529 430 497ZM253 511T220 481T168 392T149 253Q149 126 192
65T303 4Q346 4 379 35T431 124T450 263Q450 389 407 450T296 511Q253 511 220 481Z" />
<glyph unicode="1" glyph-name="one" horiz-adv-x="370" d="M253 103Q253 56 274 39T349 21V0Q241 4 211 4Q183 4 81 1L57 0V21Q110 21 136 39T163 103V345Q163 393 153 415T120 445T47 453V475Q120 477 167 488T253 526V103Z" />
<glyph unicode="2" glyph-name="two" horiz-adv-x="479" d="M314 529T354 496T394 403Q394 362 373 324T321 253T240 176Q199 138 179 119T143 77H346Q373 77 386 81T405 96T413 128H430Q430 36 434 -5Q412 0 285 0H51V17Q68 35 109 74Q166 127 204 169T269 266T297
381Q297 489 197 489Q115 489 63 395L47 404Q73 458 121 493T244 529Q314 529 354 496Z" />
<glyph unicode="3" glyph-name="three" horiz-adv-x="451" d="M290 529T330 498T371 415Q371 360 328 316T222 250Q299 248 353 209T407 98Q407 26 352 -31T211 -119T37 -151V-133Q108 -131 171 -104T273 -25T312 98Q312 157 283 195T206 238Q202 236 186 230T159
223Q143 223 143 236Q143 245 150 250T169 255Q175 255 185 254T204 251Q243 281 262 318T281 395Q281 441 258 463T194 485Q152 485 118 463T61 396L44 404Q102 529 227 529Q290 529 330 498Z" />
<glyph unicode="4" glyph-name="four" horiz-adv-x="494" d="M445 52T358 54V-141H278V54H17V75L342 529H358V121H370Q397 121 410 125T429 140T437 172H454Q454 88 458 49Q445 52 358 54ZM278 121V407L76 121H278Z" />
<glyph unicode="5" glyph-name="five" horiz-adv-x="415" d="M334 463T338 419Q317 424 199 424H93L81 231Q109 245 135 253T198 261Q285 261 330 219T375 107Q375 33 327 -25T202 -116T45 -148V-130Q106 -129 159 -103T246 -26T280 97Q280 160 247 195T154 231Q130
231 113 227T72 214L62 220L81 518Q101 514 135 514H248Q275 514 288 518T307 533T315 565H334Q334 463 338 419Z" />
<glyph unicode="6" glyph-name="six" horiz-adv-x="517" d="M347 438T388 412T454 337T479 220Q479 147 450 94T370 14T259 -14Q163 -14 109 61T55 270Q55 410 108 507T239 656T394 723L398 703Q337 683 289 649T203 544T156 357Q179 399 219 418T299 438Q347
438 388 412ZM318 6T350 57T382 213Q382 315 352 362T274 409Q239 409 205 389T153 323Q152 307 152 272Q152 128 186 67T269 6Q318 6 350 57Z" />
<glyph unicode="7" glyph-name="seven" horiz-adv-x="406" d="M398 493Q383 458 346 386Q307 311 283 257T242 132T225 -18Q225 -38 227 -66Q229 -88 229 -97Q229 -120 216 -134T182 -148Q160 -148 149 -132T137 -92Q137 -15 160 60T217 198T305 351L352 430H115Q88
430 75 426T56 411T48 379H31Q31 478 27 519Q50 514 176 514H398V493Z" />
<glyph unicode="8" glyph-name="eight" horiz-adv-x="520" d="M362 360T393 333T446 266T469 177Q469 121 441 78T364 10T253 -14Q168 -14 110 29T52 154Q52 223 96 277T212 367Q151 417 118 462T85 566Q85 612 109 647T175 702T268 722Q339 722 386 686T433 585Q433
531 400 486T306 401Q362 360 393 333ZM216 704T190 675T163 597Q163 540 195 500T291 412Q353 471 353 572Q353 632 328 668T257 704Q216 704 190 675ZM312 4T348 39T384 135Q384 182 363 219T312 284T227 355Q140 292 140 169Q140 98 169 51T259 4Q312 4 348
39Z" />
<glyph unicode="9" glyph-name="nine" horiz-adv-x="509" d="M353 529T407 460T461 265Q461 138 408 49T277 -87T122 -148L118 -128Q209 -102 272 -42T356 151Q333 112 294 95T217 77Q169 77 128 103T62 178T37 295Q37 368 66 421T146 501T257 529Q353 529 407
460ZM276 106T309 125T360 186Q364 218 364 263Q364 396 330 452T247 509Q198 509 166 458T134 302Q134 200 164 153T242 106Q276 106 309 125Z" />
<glyph unicode=":" glyph-name="colon" horiz-adv-x="266" d="M159 528T178 509T197 464Q197 438 178 419T133 400Q107 400 88 419T69 464Q69 490 88 509T133 528Q159 528 178 509ZM159 114T178 95T197 50Q197 24 178 5T133 -14Q107 -14 88 5T69 50Q69 76 88 95T133
114Q159 114 178 95Z" />
<glyph unicode=";" glyph-name="semicolon" horiz-adv-x="285" d="M176 114T196 82Q213 55 213 16Q213 -34 188 -74T110 -138L101 -120Q132 -107 154 -79T177 -22Q177 -10 174 -1Q158 -14 137 -14Q110 -14 92 3T73 50Q73 77 91 95T137 114Q176 114 196 82ZM170
528T189 509T208 464Q208 438 189 419T144 400Q118 400 99 419T80 464Q80 490 99 509T144 528Q170 528 189 509Z" />
<glyph unicode="&lt;" glyph-name="less" horiz-adv-x="608" d="M534 546L125 355L534 164L517 128L30 355L517 582L534 546Z" />
<glyph unicode="=" glyph-name="equal" horiz-adv-x="647" d="M574 410H73V440H574V410ZM574 270H73V300H574V270Z" />
<glyph unicode="&gt;" glyph-name="greater" horiz-adv-x="608" d="M74 546L483 355L74 164L91 128L578 355L91 582L74 546Z" />
<glyph unicode="?" glyph-name="question" horiz-adv-x="459" d="M310 782T367 734T425 602Q425 520 365 463T200 380V234H180V389Q272 423 304 469T336 583Q336 674 299 718T196 762Q167 762 141 754T98 726Q117 722 128 709T140 675Q140 650 124 636T85 621Q62
621 47 636T32 674Q32 714 79 746Q132 782 215 782Q310 782 367 734ZM217 114T236 95T255 50Q255 24 236 5T191 -14Q165 -14 146 5T127 50Q127 76 146 95T191 114Q217 114 236 95Z" />
<glyph unicode="@" glyph-name="at" horiz-adv-x="878" d="M482 26T482 90Q482 115 489 138T497 166Q468 94 431 60T343 26Q289 26 265 59T240 147Q240 221 275 299T367 427T478 478Q539 478 550 425L558 464Q615 464 648 478L564 111Q558 90 558 77Q558 63 565
57T587 51Q629 51 685 93T783 213T824 394Q824 525 743 587T533 650Q413 650 306 581T134 395T69 145Q69 -2 150 -72T369 -143Q485 -143 575 -89L582 -102Q543 -129 488 -145T368 -161Q222 -161 136 -86T49 143Q49 277 114 398T290 593T532 668Q672 668 758 600T844
393Q844 286 800 203T688 73T554 26Q482 26 482 90ZM415 56T454 113T518 268L544 394Q542 426 527 440T482 455Q440 455 404 410T347 294T325 153Q325 56 377 56Q415 56 454 113Z" />
<glyph unicode="A" glyph-name="A" horiz-adv-x="630" d="M591 22T636 20V0Q596 3 529 3Q443 3 401 0V20Q439 22 455 29T472 57Q472 74 460 104L399 268H157L116 162Q96 108 96 80Q96 49 117 35T183 20V0Q126 3 68 3Q23 3 -7 0V20Q43 32 72 107L307 713H323L567
84Q591 22 636 20ZM391 288L279 587L165 288H391Z" />
<glyph unicode="B" glyph-name="B" horiz-adv-x="623" d="M484 359T531 311T578 194Q578 137 549 93T466 25T338 0Q311 0 292 1Q228 3 166 3Q84 3 42 0V20Q78 22 94 28T117 51T123 106V602Q123 640 117 657T95 680T42 688V708Q84 705 164 705L272 706Q291 707
315 707Q417 707 471 664T526 550Q526 492 490 446T374 376V374Q484 359 531 311ZM259 688T244 681T222 656T216 602V376H283Q365 376 397 420T430 539Q430 614 397 651T290 688Q259 688 244 681ZM478 23T478 198Q478 277 436 318T300 359H216V106Q216 70 222 53T243
30T291 23Q478 23 478 198Z" />
<glyph unicode="C" glyph-name="C" horiz-adv-x="688" d="M431 722T473 705T555 657Q566 648 574 648Q594 648 600 708H623Q619 643 619 478H596Q585 543 576 571T546 626Q516 665 470 684T369 704Q304 704 256 661T180 539T153 352Q153 243 182 165T262 47T379
6Q429 6 476 25T550 82Q570 110 579 142T596 240H619Q619 68 623 0H600Q597 32 592 45T576 59Q568 59 555 51Q510 19 469 3T370 -14Q275 -14 204 29T93 153T53 348Q53 458 93 543T206 675T371 722Q431 722 473 705Z" />
<glyph unicode="D" glyph-name="D" horiz-adv-x="723" d="M492 708T580 620T668 362Q668 253 625 171T501 45T306 0L248 1Q192 3 166 3Q84 3 42 0V20Q78 22 94 28T117 51T123 106V602Q123 640 117 657T95 680T42 688V708Q77 705 139 705L224 706Q292 708 315 708Q492
708 580 620ZM259 690T244 683T222 658T216 604V104Q216 68 222 50T243 25T291 18Q397 18 458 56T543 169T568 358Q568 473 541 545T454 654T290 690Q259 690 244 683Z" />
<glyph unicode="E" glyph-name="E" horiz-adv-x="609" d="M554 71T561 0Q493 3 332 3Q140 3 42 0V20Q78 22 94 28T117 51T123 106V602Q123 640 117 657T95 680T42 688V708Q140 705 332 705Q479 705 541 708Q534 642 534 590Q534 551 537 528H514Q507 593 496 624T459
670T380 685H297Q261 685 245 680T222 657T216 602V366H282Q317 366 336 382T361 421T372 478L375 498H398Q395 456 395 404V356Q395 305 401 214H378Q377 221 372 262T345 325T282 346H216V106Q216 68 222 51T244 29T297 23H370Q432 23 464 39T512 92T534 200H557Q554
173 554 128Q554 71 561 0Z" />
<glyph unicode="F" glyph-name="F" horiz-adv-x="569" d="M534 637T534 580Q534 530 537 498H514Q506 575 494 612T452 667T360 685H297Q261 685 245 680T222 657T216 602V356H289Q324 356 343 372T368 411T379 468L382 488H405Q402 446 402 394V346Q402 295 408
204H385Q384 211 379 252T352 315T289 336H216V106Q216 68 224 51T252 28T317 20V0Q265 3 170 3Q84 3 42 0V20Q78 22 94 28T117 51T123 106V602Q123 640 117 657T95 680T42 688V708Q140 705 332 705Q479 705 541 708Q534 637 534 580Z" />
<glyph unicode="G" glyph-name="G" horiz-adv-x="703" d="M435 722T473 706T556 657Q569 647 576 647Q595 647 601 708H624Q620 643 620 478H597Q588 531 578 565T547 626Q518 662 472 683T374 704Q308 704 258 661T181 539T154 353Q154 173 211 90T392 6Q452
6 496 37Q514 49 519 60T525 92V188Q525 230 517 249T489 275T424 284V304Q476 301 565 301Q633 301 669 304V284Q646 282 636 276T622 253T618 198V0H598Q597 20 590 38T571 57Q565 57 559 54T538 40Q503 13 466 0T382 -14Q279 -14 206 28T93 151T54 342Q54 456
95 542T210 675T376 722Q435 722 473 706Z" />
<glyph unicode="H" glyph-name="H" horiz-adv-x="757" d="M679 686T663 680T640 657T634 602V106Q634 68 640 51T662 28T715 20V0Q673 3 587 3Q506 3 460 0V20Q496 22 512 28T535 51T541 106V346H216V106Q216 68 222 51T244 28T297 20V0Q251 3 170 3Q84 3 42 0V20Q78
22 94 28T117 51T123 106V602Q123 640 117 657T95 680T42 688V708Q84 705 170 705Q250 705 297 708V688Q261 686 245 680T222 657T216 602V366H541V602Q541 640 535 657T513 680T460 688V708Q506 705 587 705Q673 705 715 708V688Q679 686 663 680Z" />
<glyph unicode="I" glyph-name="I" horiz-adv-x="339" d="M297 688Q261 686 245 680T222 657T216 602V106Q216 68 222 51T244 28T297 20V0Q251 3 170 3Q84 3 42 0V20Q78 22 94 28T117 51T123 106V602Q123 640 117 657T95 680T42 688V708Q84 705 170 705Q250 705
297 708V688Z" />
<glyph unicode="J" glyph-name="J" horiz-adv-x="326" d="M-20 -169Q50 -167 83 -117T117 52V602Q117 640 111 657T89 680T36 688V708Q78 705 162 705Q244 705 291 708V688Q255 686 239 680T216 657T210 602V236Q210 151 207 86T193 -25Q175 -98 120 -143T-20 -188V-169Z" />
<glyph unicode="K" glyph-name="K" horiz-adv-x="655" d="M583 56T603 42T654 20V0Q606 3 534 3Q480 3 431 0V20Q455 21 466 26T477 41Q477 51 467 65L321 285Q292 329 272 342T216 358V106Q216 68 222 51T244 28T297 20V0Q251 3 170 3Q84 3 42 0V20Q78 22 94
28T117 51T123 106V602Q123 640 117 657T95 680T42 688V708Q84 705 170 705Q250 705 297 708V688Q261 686 245 680T222 657T216 602V378Q289 381 330 434L426 556Q477 619 477 652Q477 687 415 688V708Q472 705 530 705Q585 705 615 708V688Q582 683 553 667T497
615L334 406L566 81Q583 56 603 42Z" />
<glyph unicode="L" glyph-name="L" horiz-adv-x="588" d="M297 688Q261 686 245 680T222 657T216 602V106Q216 68 222 51T244 29T297 23H370Q432 23 464 40T512 97T534 210H557Q554 179 554 128Q554 71 561 0Q493 3 332 3Q140 3 42 0V20Q78 22 94 28T117 51T123
106V602Q123 640 117 657T95 680T42 688V708Q84 705 170 705Q250 705 297 708V688Z" />
<glyph unicode="M" glyph-name="M" horiz-adv-x="871" d="M793 686T777 680T754 657T748 602V106Q748 68 754 51T776 28T829 20V0Q783 3 702 3Q616 3 574 0V20Q610 22 626 28T649 51T655 106V642L414 -5H398L146 644V116Q146 77 152 58T178 31T237 20V0Q201 3
135 3Q75 3 42 0V20Q77 22 94 30T117 58T123 116V602Q123 640 117 657T95 680T42 688V708Q75 705 135 705Q187 705 220 708L440 129L655 705H702Q783 705 829 708V688Q793 686 777 680Z" />
<glyph unicode="N" glyph-name="N" horiz-adv-x="706" d="M670 688Q635 686 618 678T595 650T589 592V-5H566L146 644V116Q146 77 152 58T178 31T237 20V0Q201 3 135 3Q75 3 42 0V20Q77 22 94 30T117 58T123 116V602Q123 640 117 657T95 680T42 688V708Q75 705
135 705Q180 705 213 708L566 164V592Q566 631 560 650T534 677T475 688V708Q511 705 577 705Q637 705 670 708V688Z" />
<glyph unicode="O" glyph-name="O" horiz-adv-x="741" d="M466 722T537 679T648 555T688 360Q688 250 648 165T535 33T370 -14Q275 -14 204 29T93 153T53 348Q53 458 93 543T206 675T371 722Q466 722 537 679ZM303 704T255 660T180 535T153 352Q153 248 182 169T262
47T374 4Q438 4 486 48T561 173T588 356Q588 460 559 539T479 661T367 704Q303 704 255 660Z" />
<glyph unicode="P" glyph-name="P" horiz-adv-x="585" d="M216 286V106Q216 68 224 51T252 28T317 20V0Q265 3 170 3Q84 3 42 0V20Q78 22 94 28T117 51T123 106V602Q123 640 117 657T95 680T42 688V708Q84 705 164 705L272 706Q291 707 315 707Q432 707 494 654T556
510Q556 455 532 405T449 320T293 286H216ZM259 688T244 681T222 656T216 602V306H283Q381 306 418 358T456 499Q456 596 418 642T290 688Q259 688 244 681Z" />
<glyph unicode="Q" glyph-name="Q" horiz-adv-x="741" d="M763 -29Q741 -105 700 -143Q651 -188 565 -188Q519 -188 475 -174T364 -130Q290 -98 243 -82L219 -75Q176 -90 136 -90Q90 -90 90 -70Q90 -49 144 -49Q179 -49 219 -57Q251 -48 293 -29Q319 -17 332 -12Q247
-4 185 41T88 164T53 348Q53 458 93 543T206 675T371 722Q466 722 537 679T648 555T688 360Q688 256 652 175T551 45T402 -12V-13Q378 -16 361 -21T314 -39Q278 -55 254 -62Q365 -84 442 -97T571 -110Q642 -110 683 -90T748 -23L763 -29ZM153 248T182 169T262 47T374
4Q438 4 486 48T561 173T588 356Q588 460 559 539T479 661T367 704Q303 704 255 660T180 535T153 352Q153 248 182 169Z" />
<glyph unicode="R" glyph-name="R" horiz-adv-x="648" d="M660 50Q637 16 614 1T553 -14Q512 -14 486 10T446 94L424 194Q412 246 402 274T370 319T311 336H216V106Q216 68 222 51T244 28T297 20V0Q251 3 170 3Q84 3 42 0V20Q78 22 94 28T117 51T123 106V602Q123
640 117 657T95 680T42 688V708Q84 705 164 705L272 706Q291 707 315 707Q431 707 493 659T556 533Q556 494 538 455T476 384T362 341L374 339Q440 328 470 299T514 207L539 105Q549 59 560 41T590 23Q607 23 618 32T645 61L660 50ZM259 688T244 681T222 656T216
602V356H283Q382 356 419 400T456 522Q456 604 417 646T290 688Q259 688 244 681Z" />
<glyph unicode="S" glyph-name="S" horiz-adv-x="540" d="M300 719T325 710T378 682Q400 668 412 668Q421 668 426 678T434 712H457Q452 654 452 508H429Q423 589 383 644T265 700Q211 700 177 668T143 584Q143 546 160 518T205 470T282 419L311 401Q374 362 410
333T469 265T491 176Q491 85 431 36T279 -14Q231 -14 201 -4T142 23Q120 37 108 37Q99 37 94 27T86 -7H63Q67 48 67 233H90Q97 132 140 69T272 6Q326 6 364 39T402 139Q402 195 365 234T246 322Q187 358 151 386T91 453T68 546Q68 630 122 674T256 719Q300 719
325 710Z" />
<glyph unicode="T" glyph-name="T" horiz-adv-x="621" d="M585 637T585 580Q585 530 588 498H565Q557 575 545 612T503 667T411 685H357V116Q357 74 365 55T393 29T458 20V0Q406 3 311 3Q211 3 163 0V20Q208 22 228 29T256 55T264 116V685H210Q148 685 118 668T76
613T56 498H33Q36 530 36 580Q36 637 29 708Q112 705 311 705Q509 705 592 708Q585 637 585 580Z" />
<glyph unicode="U" glyph-name="U" horiz-adv-x="682" d="M655 688Q620 686 603 678T580 650T574 592V291Q574 219 565 168T533 79Q508 36 460 11T350 -14Q240 -14 182 40Q138 81 123 133T108 288V602Q108 640 102 657T80 680T27 688V708Q69 705 155 705Q236 705
282 708V688Q246 686 230 680T207 657T201 602V271Q201 191 212 138T257 53T359 21Q465 21 508 89T551 280V592Q551 646 532 666T460 688V708Q496 705 562 705Q622 705 655 708V688Z" />
<glyph unicode="V" glyph-name="V" horiz-adv-x="630" d="M607 705T637 708V688Q587 676 558 601L323 -5H315H307L63 624Q39 686 -6 688V708Q34 705 101 705Q187 705 229 708V688Q191 686 175 679T158 651Q158 634 170 604L351 123L514 546Q534 600 534 628Q534
659 513 673T447 688V708Q504 705 562 705Q607 705 637 708Z" />
<glyph unicode="W" glyph-name="W" horiz-adv-x="905" d="M877 705T907 708V688Q851 675 828 601L639 -5H631H623L449 510L290 -5H282H274L62 624Q41 686 -7 688V708Q34 705 100 705Q172 705 208 708V688Q181 686 170 678T159 653Q159 637 170 604L316 158L438
545L411 624Q391 686 352 688V708Q388 705 449 705Q535 705 577 708V688Q539 686 524 680T509 652Q509 634 519 604L663 159L786 546Q802 595 802 627Q802 660 782 673T717 688V708Q774 705 832 705Q877 705 907 708Z" />
<glyph unicode="X" glyph-name="X" horiz-adv-x="634" d="M579 42T592 32T627 21V0Q559 4 541 4Q508 4 400 0V21Q439 21 455 24T471 37Q471 45 464 55L293 317L185 156Q147 99 147 68Q147 42 170 32T236 20V0Q179 3 101 3Q46 3 16 0V20Q46 24 73 47T129 112L280
337L84 637Q65 666 52 676T17 687V708Q85 704 103 704Q170 704 244 708V687Q208 687 193 682T177 665Q177 659 186 643L342 405L440 552Q483 615 483 648Q483 669 464 678T406 688V708Q463 705 521 705Q576 705 606 708V688Q576 684 549 661T493 596L353 387L560
71Q579 42 592 32Z" />
<glyph unicode="Y" glyph-name="Y" horiz-adv-x="591" d="M558 705T588 708V688Q568 683 549 663T508 599L351 288V106Q351 68 357 51T379 28T432 20V0Q386 3 305 3Q219 3 177 0V20Q213 22 229 28T252 51T258 106V256L55 631Q37 664 24 675T-3 687V708Q36 705
85 705Q182 705 225 708V687Q155 687 155 649Q155 634 165 614L331 295L459 549Q486 602 486 635Q486 663 464 675T398 688V708Q455 705 513 705Q558 705 588 708Z" />
<glyph unicode="Z" glyph-name="Z" horiz-adv-x="594" d="M550 688L151 23H347Q409 23 441 40T489 97T511 210H534Q531 179 531 128Q531 71 538 0Q464 3 289 3Q118 3 42 0V20L444 685H249Q187 685 155 668T107 611T85 498H62Q65 530 65 580Q65 637 58 708Q132
705 307 705Q477 705 550 708V688Z" />
<glyph unicode="[" glyph-name="bracketleft" horiz-adv-x="296" d="M263 753H182V-162H263V-181H92V772H263V753Z" />
<glyph unicode="\" glyph-name="backslash" horiz-adv-x="372" d="M305 -14H338L66 722H33L305 -14Z" />
<glyph unicode="]" glyph-name="bracketright" horiz-adv-x="296" d="M33 753H114V-162H33V-181H204V772H33V753Z" />
<glyph unicode="^" glyph-name="asciicircum" horiz-adv-x="536" d="M301 470T350 419T464 336L456 322Q396 344 339 376T248 442Q220 409 174 377T80 322L72 336Q136 367 185 418T259 528H277Q301 470 350 419Z" />
<glyph unicode="_" glyph-name="underscore" horiz-adv-x="591" d="M522 -155H69V-115H522V-155Z" />
<glyph unicode="`" glyph-name="grave" horiz-adv-x="283" d="M72 820T86 820Q107 820 124 798Q141 775 164 729Q196 667 233 608L222 599Q187 635 158 662T121 696Q84 726 64 751Q50 770 50 785Q50 801 64 813Q72 820 86 820Z" />
<glyph unicode="a" glyph-name="a" horiz-adv-x="498" d="M100 -7T70 24T39 112Q39 157 63 186T121 232T210 268Q266 287 293 303T320 346V408Q320 466 296 487T227 509Q157 509 128 473Q148 468 161 452T175 412Q175 387 159 373T118 358Q90 358 76 375T62 418Q62
442 73 458T108 490Q132 507 169 518T250 529Q328 529 368 492Q393 469 401 437T410 351V73Q410 48 417 37T441 26Q453 26 463 31T486 47L497 30Q471 10 453 2T406 -7Q358 -7 339 17T320 82Q290 32 251 13T163 -7Q100 -7 70 24ZM273 33T320 109V305Q311 291 295
282T246 258Q208 242 185 228T144 188T127 124Q127 79 149 56T207 33Q273 33 320 109Z" />
<glyph unicode="b" glyph-name="b" horiz-adv-x="563" d="M411 529T463 459T516 257Q516 170 486 109T406 17T293 -14Q256 -14 222 1T161 44L90 -16L73 -9Q80 16 80 49V663Q80 709 63 730T4 751V772Q36 769 66 769Q129 769 170 783V422Q192 473 233 501T326 529Q411
529 463 459ZM352 9T385 69T419 257Q419 379 389 439T297 499Q255 499 220 467T170 375V58Q193 34 223 22T285 9Q352 9 385 69Z" />
<glyph unicode="c" glyph-name="c" horiz-adv-x="486" d="M346 529T395 497Q442 466 442 420Q442 394 427 379T389 364Q366 364 350 377T334 414Q334 435 346 449T376 469Q366 487 341 499T286 511Q249 511 217 488T164 410T143 266Q143 142 183 86T287 29Q330
29 368 54T432 132L451 125Q434 68 388 27T267 -14Q205 -14 155 18T75 110T46 251Q46 332 75 395T158 493T279 529Q346 529 395 497Z" />
<glyph unicode="d" glyph-name="d" horiz-adv-x="581" d="M484 63T501 42T560 21V0Q529 3 498 3Q435 3 394 -11V78Q376 33 340 10T252 -14Q156 -14 102 55T48 257Q48 344 78 405T160 498T274 529Q312 529 343 515T394 470V664Q394 710 377 731T318 752V773Q350
770 380 770Q443 770 484 784V109Q484 63 501 42ZM320 16T351 46T394 131V429Q367 506 282 506Q220 506 182 443T145 257Q144 137 179 77T281 16Q320 16 351 46Z" />
<glyph unicode="e" glyph-name="e" horiz-adv-x="506" d="M463 120Q445 65 396 26T276 -14Q205 -14 153 18T74 109T46 245Q46 332 74 396T153 494T272 529Q362 529 410 475T459 309H146Q143 281 143 245Q143 179 164 130T221 55T296 28Q344 28 381 51T443 128L463
120ZM221 510T187 464T145 328H363Q365 406 341 458T268 510Q221 510 187 464Z" />
<glyph unicode="f" glyph-name="f" horiz-adv-x="332" d="M328 782T363 755Q394 730 394 693Q394 670 379 655T341 640Q318 640 302 654T286 694Q286 715 297 728T328 745Q325 755 312 761T279 767Q257 767 240 757T214 730Q203 710 200 671T196 540V514H303V494H196V103Q196
57 222 39T302 21V0L278 1Q176 4 148 4Q122 4 30 0V21Q72 21 89 36T106 93V494H26V514H106Q106 602 117 650T157 732Q177 755 208 768T276 782Q328 782 363 755Z" />
<glyph unicode="g" glyph-name="g" horiz-adv-x="528" d="M453 425T441 437T428 472Q428 492 438 518Q412 507 397 494T370 460Q393 425 393 371Q393 292 345 253T218 213H217Q184 194 167 178T150 142Q150 110 198 110H323Q391 110 435 81T480 -8Q480 -56 449
-97T358 -163T213 -188Q126 -188 68 -162T9 -83Q9 -49 36 -24T113 15L119 -1Q97 -8 84 -29T71 -76Q71 -122 112 -146T224 -171Q301 -171 356 -142T411 -50Q411 -14 386 6T295 26H221Q162 26 127 41T91 101Q91 132 113 160T188 215Q122 222 83 261T43 371Q43 450
91 489T218 529Q312 529 357 477Q376 504 405 521T463 539Q489 539 505 524T521 481Q521 453 506 439T471 425Q453 425 441 437ZM258 231T278 262T299 371Q299 448 279 479T218 511Q178 511 158 480T137 371Q137 294 157 263T218 231Q258 231 278 262Z" />
<glyph unicode="h" glyph-name="h" horiz-adv-x="588" d="M186 409Q211 472 255 500T356 529Q426 529 462 491Q481 471 489 441T497 360V93Q497 52 514 37T573 21V0Q481 4 453 4Q425 4 341 0V21Q378 21 392 36T407 93V382Q407 438 391 467T326 497Q285 497 254
474T204 410T186 316V93Q186 52 200 37T252 21V0Q168 4 140 4Q112 4 20 0V21Q62 21 79 36T96 93V663Q96 709 79 730T20 751V772Q52 769 82 769Q145 769 186 783V409Z" />
<glyph unicode="i" glyph-name="i" horiz-adv-x="293" d="M169 765T188 746T207 701Q207 675 188 656T143 637Q117 637 98 656T79 701Q79 727 98 746T143 765Q169 765 188 746ZM195 93Q195 52 212 37T271 21V0Q179 4 150 4Q121 4 29 0V21Q71 21 88 36T105 93V406Q105
452 88 473T29 494V515Q61 512 91 512Q154 512 195 526V93Z" />
<glyph unicode="j" glyph-name="j" horiz-adv-x="267" d="M-26 -173Q35 -170 66 -120T98 19V406Q98 452 81 473T22 494V515Q53 512 84 512Q147 512 188 526V115Q188 -51 116 -127Q89 -155 53 -171T-26 -188V-173ZM160 765T179 746T198 701Q198 675 179 656T134
637Q108 637 89 656T70 701Q70 727 89 746T134 765Q160 765 179 746Z" />
<glyph unicode="k" glyph-name="k" horiz-adv-x="550" d="M492 48T507 36T543 21V0Q483 4 462 4Q435 4 351 0V21Q365 21 373 26T382 40Q382 48 376 55L261 223Q244 248 229 256T186 267V93Q186 52 200 37T252 21V0Q168 4 141 4Q112 4 20 0V21Q62 21 79 36T96 93V664Q96
710 79 731T20 752V773Q52 770 82 770Q145 770 186 784V288Q215 292 234 301T272 329L346 406Q378 439 378 461Q378 478 358 486T304 495V515Q374 511 417 511Q464 511 504 515V495Q455 491 414 448L292 320L473 73Q492 48 507 36Z" />
<glyph unicode="l" glyph-name="l" horiz-adv-x="286" d="M188 93Q188 52 205 37T264 21V0Q172 4 143 4Q114 4 22 0V21Q64 21 81 36T98 93V664Q98 710 81 731T22 752V773Q53 770 84 770Q147 770 188 784V93Z" />
<glyph unicode="m" glyph-name="m" horiz-adv-x="888" d="M797 52T814 37T873 21V0Q781 4 753 4Q725 4 641 0V21Q678 21 692 36T707 93V382Q707 420 703 443T682 482T631 497Q593 497 562 473T514 408T496 316V93Q496 52 513 37T572 21V0Q480 4 452 4Q424 4 340
0V21Q377 21 391 36T406 93V382Q406 420 402 443T381 482T330 497Q292 497 261 473T213 407T195 315V93Q195 52 209 37T261 21V0Q177 4 149 4Q121 4 29 0V21Q71 21 88 36T105 93V406Q105 452 88 473T29 494V515Q61 512 91 512Q154 512 195 526V408Q219 470 263
499T359 529Q427 529 463 491Q488 465 494 411Q519 474 563 501T660 529Q728 529 764 491Q782 471 789 440T797 360V93Q797 52 814 37Z" />
<glyph unicode="n" glyph-name="n" horiz-adv-x="597" d="M435 529T471 491Q490 471 498 441T506 360V93Q506 52 523 37T582 21V0Q490 4 462 4Q434 4 350 0V21Q387 21 401 36T416 93V382Q416 438 400 467T335 497Q294 497 262 473T213 408T195 315V93Q195 52 209
37T261 21V0Q177 4 149 4Q121 4 29 0V21Q71 21 88 36T105 93V406Q105 452 88 473T29 494V515Q61 512 91 512Q154 512 195 526V408Q220 472 264 500T365 529Q435 529 471 491Z" />
<glyph unicode="o" glyph-name="o" horiz-adv-x="548" d="M376 529T438 462T501 257Q501 120 439 53T274 -14Q172 -14 110 53T47 257Q47 394 109 461T274 529Q376 529 438 462ZM214 509T179 448T144 257Q144 128 179 67T274 6Q334 6 369 67T404 257Q404 386 369
447T274 509Q214 509 179 448Z" />
<glyph unicode="p" glyph-name="p" horiz-adv-x="581" d="M401 529T443 500T510 415T534 281Q534 204 510 137T434 28T305 -14Q267 -14 236 1T188 40V-88Q188 -129 212 -144T284 -160V-181L261 -180Q168 -177 140 -177Q116 -177 32 -181V-160Q69 -160 83 -147T98
-98V406Q98 452 81 473T22 494V515Q53 512 84 512Q147 512 188 526V420Q210 472 252 500T348 529Q401 529 443 500ZM437 9T437 267Q437 499 321 499Q276 499 240 467T188 373V73Q202 44 229 27T294 9Q437 9 437 267Z" />
<glyph unicode="q" glyph-name="q" horiz-adv-x="563" d="M483 -133T497 -146T549 -160V-181Q465 -177 441 -177Q413 -177 320 -180L297 -181V-160Q345 -160 369 -145T393 -88V84Q373 37 337 12T253 -14Q194 -14 148 16T74 107T47 257Q47 345 75 406T151 498T261
529Q312 529 346 512T402 456L473 531L490 524Q483 499 483 466V-98Q483 -133 497 -146ZM319 16T349 46T393 131V440Q374 473 342 489T269 506Q209 506 177 444T144 257Q144 137 179 77T282 16Q319 16 349 46Z" />
<glyph unicode="r" glyph-name="r" horiz-adv-x="445" d="M380 529T405 506T431 450Q431 424 416 406T374 387Q352 387 337 401T321 439Q321 472 355 493Q348 503 334 503Q295 503 263 473T213 398T195 315V103Q195 57 221 39T301 21V0L277 1Q175 4 147 4Q121
4 29 0V21Q71 21 88 36T105 93V406Q105 452 88 473T29 494V515Q61 512 91 512Q154 512 195 526V401Q213 451 252 490T340 529Q380 529 405 506Z" />
<glyph unicode="s" glyph-name="s" horiz-adv-x="447" d="M244 529T272 518T317 492Q328 484 335 484Q353 484 357 528H380Q376 479 376 358H353Q342 424 311 467T217 510Q181 510 158 490T135 433Q135 398 159 375T236 318Q245 313 263 301Q309 271 337 248T382
195T400 126Q400 60 351 23T229 -14Q184 -14 150 0Q128 11 109 27Q105 31 100 31Q93 31 88 21T79 -7H56Q60 50 60 193H83Q94 99 123 53T222 6Q257 6 284 29T311 101Q311 140 285 167T198 232Q149 263 123 283T78 332T60 400Q60 463 102 496T208 529Q244 529 272
518Z" />
<glyph unicode="t" glyph-name="t" horiz-adv-x="354" d="M190 514H338V494H190V107Q190 62 206 42T254 22Q285 22 307 47T344 129L364 124Q339 -14 234 -14Q200 -14 178 -6T139 19Q117 41 109 73T100 159V494H4V514H100V667Q156 669 190 681V514Z" />
<glyph unicode="u" glyph-name="u" horiz-adv-x="581" d="M483 108Q483 62 500 41T559 20V-1Q528 2 497 2Q434 2 393 -12V106Q369 44 325 15T229 -14Q161 -14 125 24Q107 44 100 75T92 155V406Q92 452 75 473T16 494V515Q47 512 78 512Q141 512 182 526V133Q182
95 186 72T207 33T258 18Q296 18 327 42T375 107T393 199V406Q393 452 376 473T317 494V515Q348 512 379 512Q442 512 483 526V108Z" />
<glyph unicode="v" glyph-name="v" horiz-adv-x="489" d="M454 512T486 515V495Q466 493 451 477T421 425L257 -5H240L56 438Q41 472 27 483T-2 494V515Q50 511 86 511Q163 511 216 515V494Q179 494 162 489T145 460Q145 446 156 416L279 112L389 401Q400 431
400 448Q400 471 383 481T326 495V515Q378 512 410 512Q454 512 486 515Z" />
<glyph unicode="w" glyph-name="w" horiz-adv-x="770" d="M735 512T767 515V495Q746 492 730 477T702 425L557 -5H540L382 397L239 -5H222L58 438Q44 473 30 483T0 494V515Q39 509 88 509Q138 509 218 515V494Q181 494 165 488T148 457Q148 439 158 410L258 122L402
519H425L578 115L672 401Q681 428 681 446Q681 470 664 481T607 495V515Q660 512 691 512Q735 512 767 515Z" />
<glyph unicode="x" glyph-name="x" horiz-adv-x="519" d="M462 46T474 36T506 21V0Q454 4 435 4Q401 4 317 0V21Q333 21 344 27T356 43Q356 50 352 55L238 221L165 126Q137 89 137 66Q137 45 156 34T211 20V0Q159 3 97 3Q53 3 21 0V20Q41 22 61 38T109 90L224
241L85 444Q65 473 53 482T23 494V515Q75 511 94 511Q128 511 212 515V494Q196 494 185 488T173 472Q173 465 177 460L284 304L353 401Q383 444 383 464Q383 478 370 485T326 495V515Q378 512 410 512Q454 512 486 515V495Q445 490 398 425L297 285L444 71Q462
46 474 36Z" />
<glyph unicode="y" glyph-name="y" horiz-adv-x="504" d="M462 512T494 515V495Q474 493 459 477T429 425L265 -5L231 -92Q212 -141 188 -162Q173 -176 152 -182T110 -188Q80 -188 61 -172T42 -128Q42 -104 56 -90T95 -75Q117 -75 131 -87T146 -122Q146 -152 119
-167Q121 -168 125 -168Q180 -168 210 -90L245 1L64 438Q47 472 30 483T-4 494V515Q39 509 94 509Q144 509 224 515V494Q188 494 172 488T155 459Q155 438 167 410L287 112L398 401Q409 431 409 447Q409 470 391 481T334 495V515Q387 512 418 512Q462 512 494 515Z"
/>
<glyph unicode="z" glyph-name="z" horiz-adv-x="476" d="M150 15H260Q322 15 357 53T399 176H422Q422 45 426 -4Q347 0 240 0Q145 0 38 -5L327 500H217Q150 500 118 463T78 339H55Q55 470 51 519Q130 515 237 515Q332 515 439 520L150 15Z" />
<glyph unicode="{" glyph-name="braceleft" horiz-adv-x="304" d="M278 763Q243 762 227 748T205 691T198 551Q198 428 160 374T55 299Q121 280 159 225T198 47Q198 -53 204 -97T227 -154T278 -169V-188Q213 -188 177 -168T124 -97T108 47Q108 143 102 193T79
265T32 290H27V308H32Q63 310 79 331T101 403T108 551Q108 640 124 689T176 760T278 782V763Z" />
<glyph unicode="|" glyph-name="bar" horiz-adv-x="222" d="M131 -195H91V858H131V-195Z" />
<glyph unicode="}" glyph-name="braceright" horiz-adv-x="304" d="M26 763Q61 762 77 748T99 691T106 551Q106 428 144 374T249 299Q183 280 145 225T106 47Q106 -53 100 -97T77 -154T26 -169V-188Q91 -188 127 -168T180 -97T196 47Q196 143 202 193T225 265T272
290H277V308H272Q241 310 225 331T203 403T196 551Q196 640 180 689T128 760T26 782V763Z" />
<glyph unicode="~" glyph-name="asciitilde" horiz-adv-x="649" d="M248 365T276 356T346 326Q385 307 412 298T469 288Q535 288 559 346L576 341Q570 293 530 264T435 235Q402 235 374 244T304 274Q265 293 238 302T181 312Q115 312 91 254L74 259Q80 307 120
336T215 365Q248 365 276 356Z" />
<glyph unicode="&#xa0;" glyph-name="uni00A0" horiz-adv-x="249" />
<glyph unicode="&#xa1;" glyph-name="exclamdown" horiz-adv-x="249" d="M151 529T170 510T189 465Q189 439 170 420T125 401Q99 401 80 420T61 465Q61 491 80 510T125 529Q151 529 170 510ZM133 249T138 185T156 19Q170 -88 170 -132Q170 -161 158 -174T124 -188Q104
-188 91 -174T78 -132Q78 -88 92 19Q104 121 109 185T115 318H133Q133 249 138 185Z" />
<glyph unicode="&#xa2;" glyph-name="cent" horiz-adv-x="474" d="M423 70T379 30T265 -14V-181H243V-14Q184 -10 137 22T62 114T34 251Q34 327 60 387T134 485T243 528V708H265V529H267Q334 529 383 497Q430 466 430 420Q430 394 415 379T377 364Q354 364 338
377T322 414Q322 435 334 449T364 469Q354 487 329 499T274 511Q237 511 205 488T152 410T131 266Q131 142 171 86T275 29Q318 29 356 54T420 132L439 125Q423 70 379 30Z" />
<glyph unicode="&#xa3;" glyph-name="sterling" horiz-adv-x="602" d="M495 214T532 181T570 97Q570 52 541 19T461 -14Q428 -14 400 -2T331 35Q326 38 303 51T259 72Q237 80 210 80Q182 80 155 70Q132 30 105 8T51 -14Q43 -14 39 -12T35 -4Q35 11 64 36T125 73Q132
105 134 142T136 258V297H59V317H136V397H59V417H136V439Q136 575 187 655T358 736Q417 736 452 709Q482 685 482 654Q482 633 468 619T435 605Q417 605 403 618T389 650Q389 666 397 678T422 697Q420 707 401 714T360 721Q300 721 272 687T236 600T229 465V417H374V397H229V317H374V297H229Q227
238 212 191T164 88Q207 108 250 108Q273 108 293 103T347 86Q383 74 406 69T455 63Q489 63 506 79T523 120Q523 154 500 176T438 206L442 222Q495 214 532 181Z" />
<glyph unicode="&#xa4;" glyph-name="currency" horiz-adv-x="535" d="M460 464L415 419Q457 366 457 300Q457 233 415 181L459 138L431 109L387 153Q334 111 268 111Q199 111 149 152L106 109L77 138L120 181Q78 233 78 300Q78 367 121 420L77 464L105 492L149
448Q173 468 204 479T268 490Q334 490 387 447L432 492L460 464ZM228 453T194 432T139 376T119 300Q119 259 139 224T194 169T268 148Q308 148 342 168T396 224T416 300Q416 340 396 375T342 432T268 453Q228 453 194 432Z" />
<glyph unicode="&#xa5;" glyph-name="yen" horiz-adv-x="647" d="M588 705T618 708V688Q598 683 579 663T538 599L385 296H521V276H381V196H521V176H381V106Q381 68 387 51T409 28T462 20V0Q416 3 335 3Q249 3 207 0V20Q243 22 259 28T282 51T288 106V176H148V196H288V256L277
276H148V296H266L85 631Q67 664 54 675T27 687V708Q66 705 115 705Q212 705 255 708V687Q185 687 185 649Q185 634 195 614L361 296H362L489 549Q516 602 516 635Q516 663 494 675T428 688V708Q485 705 543 705Q588 705 618 708Z" />
<glyph unicode="&#xa6;" glyph-name="brokenbar" horiz-adv-x="224" d="M132 384H92V858H132V384ZM132 -195H92V326H132V-195Z" />
<glyph unicode="&#xa7;" glyph-name="section" horiz-adv-x="508" d="M387 79T405 45T424 -31Q424 -101 376 -144T248 -188Q201 -188 159 -171Q123 -156 103 -132T82 -81Q82 -58 96 -43T135 -27Q158 -27 174 -42T190 -80Q190 -99 180 -113T147 -133Q155 -152 185
-160T245 -169Q301 -169 327 -139T354 -70Q354 -36 334 -6T284 48T206 105L188 117Q108 172 75 213T41 312Q41 422 156 485Q121 516 103 549T85 625Q85 695 133 738T261 782Q308 782 350 765Q386 750 406 726T427 675Q427 652 413 637T374 621Q351 621 335 636T319
674Q319 693 329 707T362 727Q353 746 324 754T265 763Q208 763 182 734T155 664Q155 630 175 600T225 546T303 489L321 477Q401 422 434 381T468 282Q468 175 351 111Q387 79 405 45ZM313 143T340 121Q377 142 395 171T414 232Q414 277 378 314T270 400Q263 405
229 428T169 474Q132 453 114 424T95 362Q95 317 131 280T239 194Q313 143 340 121Z" />
<glyph unicode="&#xa8;" glyph-name="dieresis" horiz-adv-x="428" d="M131 743T148 726T166 685Q166 661 149 644T108 627Q84 627 67 644T50 685Q50 708 67 725T108 743Q131 743 148 726ZM343 743T360 726T378 685Q378 661 361 644T320 627Q296 627 279 644T262
685Q262 708 279 725T320 743Q343 743 360 726Z" />
<glyph unicode="&#xa9;" glyph-name="copyright" horiz-adv-x="894" d="M555 782T646 729T791 584T845 384Q845 276 792 185T647 40T447 -14Q339 -14 248 39T103 184T49 384Q49 492 102 583T247 728T447 782Q555 782 646 729ZM350 750T268 701T137 567T89 384Q89
285 137 201T267 68T447 18Q544 18 626 67T757 201T805 384Q805 483 757 567T627 700T447 750Q350 750 268 701ZM498 656T529 647T584 621Q626 592 626 547Q626 521 611 506T573 491Q550 491 534 505T518 545Q518 566 529 579T560 596Q550 614 525 626T470 638Q420
638 384 599Q327 537 327 390Q327 269 367 213T470 156Q514 156 552 181T616 259L635 252Q618 195 572 154T452 113Q389 113 339 145T259 237T230 378Q230 459 259 522T342 621T464 656Q498 656 529 647Z" />
<glyph unicode="&#xaa;" glyph-name="ordfeminine" horiz-adv-x="463" d="M289 722T318 692T347 595V432Q347 411 352 403T372 395Q396 395 413 412L424 397Q385 360 334 360Q298 360 284 372T267 407Q219 360 150 360Q113 360 85 380T57 438Q57 477 88 499T187
547Q226 562 246 574T267 603V621Q267 665 250 684T199 703Q181 703 161 698T125 682Q139 678 149 666T159 635Q159 616 146 604T115 591Q93 591 80 603T67 636Q67 676 115 699Q163 722 225 722Q289 722 318 692ZM263 564T252 556T211 535Q173 518 156 500T139
456Q139 429 154 412T194 395Q232 395 267 427V572Q263 564 252 556Z" />
<glyph unicode="&#xab;" glyph-name="guillemotleft" horiz-adv-x="502" d="M279 522Q244 429 204 369T107 261Q161 214 202 151T279 -7L262 -14Q219 81 164 147T32 257V258Q109 301 164 367T262 529L279 522ZM454 522Q419 429 379 369T282 261Q336 214 377 151T454
-7L437 -14Q394 81 339 147T207 257V258Q284 301 339 367T437 529L454 522Z" />
<glyph unicode="&#xac;" glyph-name="logicalnot" horiz-adv-x="656" d="M583 165H547V340H82V370H583V165Z" />
<glyph unicode="&#xad;" glyph-name="uni00AD" horiz-adv-x="499" />
<glyph unicode="&#xae;" glyph-name="registered" horiz-adv-x="678" d="M415 782T479 745T580 643T618 503Q618 427 581 363T479 262T339 224Q263 224 199 261T98 363T60 503Q60 579 97 643T199 744T339 782Q415 782 479 745ZM404 256T458 289T544 379T576 503Q576
570 545 626T459 716T339 750Q274 750 220 717T134 627T102 503Q102 436 133 380T219 290T339 256Q404 256 458 289ZM484 364T488 372L498 365Q492 353 482 349T454 344Q429 344 417 353T399 385L382 459Q378 479 371 488T347 500T294 505V404Q294 381 298 375T317
367V352L266 353L214 352V367Q229 369 233 375T237 404V623Q237 646 233 652T214 661V676Q226 675 262 675L348 676Q405 676 434 656T464 597Q464 529 366 512Q406 508 423 495T446 454L458 397Q459 393 461 383T466 369T476 364Q484 364 488 372ZM308 661T301
655T294 628V521H318Q367 521 384 538T402 587Q402 625 386 643T332 661Q308 661 301 655Z" />
<glyph unicode="&#xaf;" glyph-name="overscore" horiz-adv-x="412" d="M362 687H50V712H362V687Z" />
<glyph unicode="&#xb0;" glyph-name="degree" horiz-adv-x="333" d="M217 820T252 787T288 700Q288 646 253 613T166 579Q116 579 81 612T45 700Q45 754 80 787T166 820Q217 820 252 787ZM129 803T100 775T70 699Q70 650 99 623T166 596Q204 596 233 623T263 699Q263
747 233 775T166 803Q129 803 100 775Z" />
<glyph unicode="&#xb1;" glyph-name="plusminus" horiz-adv-x="597" d="M554 0H53V30H554V0ZM312 370H544V340H312V105H276V340H43V370H276V606H312V370Z" />
<glyph unicode="&#xb2;" glyph-name="uni00B2" horiz-adv-x="338" d="M219 755T246 736T274 680Q274 642 248 613T172 545Q168 542 147 526T112 494H244Q266 494 274 501T291 528L308 525Q295 473 293 435Q281 438 255 438H35V458Q52 472 75 489Q119 523 145 546T191
600T211 667Q211 721 146 721Q85 721 51 667L36 675Q55 709 89 732T174 755Q219 755 246 736Z" />
<glyph unicode="&#xb3;" glyph-name="uni00B3" horiz-adv-x="324" d="M214 756T241 737T269 683Q269 650 244 626T176 589Q225 588 258 565T292 499Q292 455 254 421T155 367T32 348V365Q83 366 129 384T203 433T231 499Q231 533 211 554T158 578Q153 575 142
570T122 564Q106 564 106 576Q106 586 117 588T150 590Q180 603 193 623T206 664Q206 690 188 706T138 722Q108 722 84 709T43 668L28 676Q47 711 82 733T168 756Q214 756 241 737Z" />
<glyph unicode="&#xb4;" glyph-name="acute" horiz-adv-x="283" d="M233 801T233 785Q233 770 219 751Q199 726 162 696Q155 690 126 663T61 599L50 608Q87 667 119 729Q142 775 159 798Q175 820 197 820Q211 820 219 813Q233 801 233 785Z" />
<glyph unicode="&#xb6;" glyph-name="paragraph" horiz-adv-x="645" d="M424 709T474 707L544 706Q584 706 604 708V689Q558 687 543 672T527 621V-75Q527 -113 533 -130T555 -153T608 -161V-181Q561 -178 481 -178Q381 -178 333 -181V-161Q375 -159 396 -150T426
-122T434 -65V-13Q224 -13 130 87T35 360Q35 462 77 541T201 664T393 709Q424 709 474 707ZM432 656T425 614T411 505T404 366Q302 366 213 360T124 351Q124 347 211 342T404 337Q405 262 411 196T424 89T435 48V656Q432 656 425 614Z" />
<glyph unicode="&#xb7;" glyph-name="middot" horiz-adv-x="264" d="M158 332T177 313T196 268Q196 242 177 223T132 204Q106 204 87 223T68 268Q68 294 87 313T132 332Q158 332 177 313Z" />
<glyph unicode="&#xb8;" glyph-name="cedilla" horiz-adv-x="296" d="M126 -72Q156 -65 185 -65Q213 -65 229 -77T246 -112Q246 -150 211 -169T133 -188Q83 -188 50 -177L54 -159Q75 -162 92 -162Q128 -162 155 -152T182 -117Q182 -89 140 -89Q112 -89 91 -96L125
6H152L126 -72Z" />
<glyph unicode="&#xb9;" glyph-name="uni00B9" horiz-adv-x="263" d="M178 507Q178 479 193 469T245 458V437Q207 439 148 439Q83 439 41 437V458Q78 458 96 468T115 507V636Q115 665 108 678T85 696T34 701V722Q85 723 118 730T178 753V507Z" />
<glyph unicode="&#xba;" glyph-name="ordmasculine" horiz-adv-x="454" d="M272 722T313 701T379 639T404 541Q404 484 379 443T313 381T227 360Q182 360 141 381T75 443T50 541Q50 598 75 639T141 701T227 722Q272 722 313 701ZM186 704T160 664T133 541Q133
459 159 419T227 378Q268 378 294 418T321 541Q321 623 295 663T227 704Q186 704 160 664Z" />
<glyph unicode="&#xbb;" glyph-name="guillemotright" horiz-adv-x="501" d="M108 433T163 367T295 257V256Q218 213 163 147T65 -15L48 -8Q83 85 123 145T220 253Q166 300 125 363T48 521L65 528Q108 433 163 367ZM283 433T338 367T470 257V256Q393 213 338 147T240
-15L223 -8Q258 85 298 145T395 253Q341 300 300 363T223 521L240 528Q283 433 338 367Z" />
<glyph unicode="&#xbc;" glyph-name="onequarter" horiz-adv-x="693" d="M668 811L83 -55L64 -42L649 824L668 811ZM194 507Q194 479 209 469T261 458V437Q223 439 164 439Q99 439 57 437V458Q94 458 112 468T131 507V636Q131 665 124 678T101 696T50 701V722Q101
723 134 730T194 753V507ZM621 90Q608 47 607 15Q595 18 569 18H549V-99H493V18H299V39L528 303H549V59H557Q579 59 587 66T604 93L621 90ZM493 59V238L338 59H493Z" />
<glyph unicode="&#xbd;" glyph-name="onehalf" horiz-adv-x="700" d="M652 811L67 -55L48 -42L633 824L652 811ZM202 507Q202 479 217 469T269 458V437Q231 439 172 439Q107 439 65 437V458Q102 458 120 468T139 507V636Q139 665 132 678T109 696T58 701V722Q109
723 142 730T202 753V507ZM572 318T599 299T627 243Q627 205 601 176T525 108Q521 105 500 89T465 57H597Q619 57 627 64T644 91L661 88Q648 35 646 -2Q634 1 608 1H388V21Q405 35 428 52Q472 86 498 109T544 163T564 230Q564 284 499 284Q438 284 404 230L389
238Q408 272 442 295T527 318Q572 318 599 299Z" />
<glyph unicode="&#xbe;" glyph-name="threequarters" horiz-adv-x="744" d="M715 811L130 -55L111 -42L696 824L715 811ZM237 756T264 737T292 683Q292 650 267 626T199 589Q248 588 281 565T315 499Q315 455 277 421T178 367T55 348V365Q106 366 152 384T226
433T254 499Q254 533 234 554T181 578Q176 575 165 570T145 564Q129 564 129 576Q129 586 140 588T173 590Q203 603 216 623T229 664Q229 690 211 706T161 722Q131 722 107 709T66 668L51 676Q70 711 105 733T191 756Q237 756 264 737ZM668 90Q655 47 654 15Q642
18 616 18H596V-99H540V18H346V39L575 303H596V59H604Q626 59 634 66T651 93L668 90ZM540 59V238L385 59H540Z" />
<glyph unicode="&#xbf;" glyph-name="questiondown" horiz-adv-x="453" d="M291 530T310 511T329 466Q329 440 310 421T265 402Q239 402 220 421T201 466Q201 492 220 511T265 530Q291 530 310 511ZM276 185Q184 153 152 109T120 1Q120 -85 157 -126T260 -168Q330
-168 358 -142Q339 -138 328 -125T316 -91Q316 -66 332 -52T371 -37Q394 -37 409 -52T424 -90Q424 -131 377 -159Q328 -188 241 -188Q146 -188 89 -143T31 -18Q31 61 91 115T256 194V320H276V185Z" />
<glyph unicode="&#xc0;" glyph-name="Agrave" horiz-adv-x="630" d="M591 22T636 20V0Q596 3 529 3Q443 3 401 0V20Q439 22 455 29T472 57Q472 74 460 104L399 268H157L116 162Q96 108 96 80Q96 49 117 35T183 20V0Q126 3 68 3Q23 3 -7 0V20Q43 32 72 107L307
713H323L567 84Q591 22 636 20ZM391 288L279 587L165 288H391ZM237 910T274 875Q281 869 310 843T381 785L374 772Q320 799 245 829Q194 848 173 861Q146 878 146 900Q146 910 152 919Q164 936 183 936Q197 936 213 926Q237 910 274 875Z" />
<glyph unicode="&#xc1;" glyph-name="Aacute" horiz-adv-x="630" d="M591 22T636 20V0Q596 3 529 3Q443 3 401 0V20Q439 22 455 29T472 57Q472 74 460 104L399 268H157L116 162Q96 108 96 80Q96 49 117 35T183 20V0Q126 3 68 3Q23 3 -7 0V20Q43 32 72 107L307
713H323L567 84Q591 22 636 20ZM391 288L279 587L165 288H391ZM437 936T451 936Q470 936 482 919Q488 910 488 900Q488 878 461 861Q440 848 389 829Q314 799 260 772L253 785Q294 816 323 842T360 875Q397 910 421 926Q437 936 451 936Z" />
<glyph unicode="&#xc2;" glyph-name="Acircumflex" horiz-adv-x="630" d="M591 22T636 20V0Q596 3 529 3Q443 3 401 0V20Q439 22 455 29T472 57Q472 74 460 104L399 268H157L116 162Q96 108 96 80Q96 49 117 35T183 20V0Q126 3 68 3Q23 3 -7 0V20Q43 32 72 107L307
713H323L567 84Q591 22 636 20ZM391 288L279 587L165 288H391ZM347 877T396 842T510 784L505 770Q445 783 387 802T294 840Q266 821 219 802T123 770L118 784Q182 806 231 841T305 916H323Q347 877 396 842Z" />
<glyph unicode="&#xc3;" glyph-name="Atilde" horiz-adv-x="630" d="M591 22T636 20V0Q596 3 529 3Q443 3 401 0V20Q439 22 455 29T472 57Q472 74 460 104L399 268H157L116 162Q96 108 96 80Q96 49 117 35T183 20V0Q126 3 68 3Q23 3 -7 0V20Q43 32 72 107L307
713H323L567 84Q591 22 636 20ZM391 288L279 587L165 288H391ZM258 902T280 892T333 862Q368 842 386 834T427 825Q473 825 489 881L504 878Q500 830 468 801T393 772Q368 772 346 782T293 812Q258 832 240 840T199 849Q176 849 161 837T137 793L122 796Q126 844
158 873T233 902Q258 902 280 892Z" />
<glyph unicode="&#xc4;" glyph-name="Adieresis" horiz-adv-x="630" d="M591 22T636 20V0Q596 3 529 3Q443 3 401 0V20Q439 22 455 29T472 57Q472 74 460 104L399 268H157L116 162Q96 108 96 80Q96 49 117 35T183 20V0Q126 3 68 3Q23 3 -7 0V20Q43 32 72 107L307
713H323L567 84Q591 22 636 20ZM391 288L279 587L165 288H391ZM231 888T248 871T266 830Q266 806 249 789T208 772Q184 772 167 789T150 830Q150 853 167 870T208 888Q231 888 248 871ZM443 888T460 871T478 830Q478 806 461 789T420 772Q396 772 379 789T362 830Q362
853 379 870T420 888Q443 888 460 871Z" />
<glyph unicode="&#xc5;" glyph-name="Aring" horiz-adv-x="630" d="M591 22T636 20V0Q596 3 529 3Q443 3 401 0V20Q439 22 455 29T472 57Q472 74 460 104L399 268H157L116 162Q96 108 96 80Q96 49 117 35T183 20V0Q126 3 68 3Q23 3 -7 0V20Q43 32 72 107L307 713H323L567
84Q591 22 636 20ZM391 288L279 587L165 288H391ZM354 925T382 900T411 834Q411 793 383 768T314 742Q274 742 246 767T218 834Q218 875 246 900T314 925Q354 925 382 900ZM288 904T267 885T246 833Q246 800 266 782T314 763Q341 763 362 781T383 833Q383 866 362
885T314 904Q288 904 267 885Z" />
<glyph unicode="&#xc6;" glyph-name="AE" horiz-adv-x="854" d="M799 71T806 0Q744 3 597 3Q440 3 357 0V20Q385 22 397 28T413 51T418 106V346H243L97 104Q79 73 79 55Q79 38 96 30T148 20V0Q118 3 57 3Q16 3 -10 0V20Q6 21 22 35T59 84L409 662Q402 676 386
681T337 688V708Q399 706 436 706L476 772H500L460 706Q515 705 597 705Q730 705 786 708Q779 642 779 590Q779 551 782 528H759Q754 593 745 624T716 670T655 685H592Q556 685 540 680T517 657T511 602V366H584Q624 366 637 391T653 443T657 478H680Q677 441 677
397V356Q677 313 683 234H660Q659 240 656 275T634 328T584 346H511V106Q511 68 517 51T539 29T592 23H665Q713 23 735 39T765 89T779 200H802Q799 173 799 128Q799 71 806 0ZM418 366V602Q418 625 417 634L255 366H418Z" />
<glyph unicode="&#xc7;" glyph-name="Ccedilla" horiz-adv-x="688" d="M431 722T473 705T555 657Q566 648 574 648Q594 648 600 708H623Q619 643 619 478H596Q585 543 576 571T546 626Q516 665 470 684T369 704Q304 704 256 661T180 539T153 352Q153 243 182 165T262
47T379 6Q429 6 476 25T550 82Q570 110 579 142T596 240H619Q619 68 623 0H600Q597 32 592 45T576 59Q568 59 555 51Q510 19 469 3T370 -14Q275 -14 204 29T93 153T53 348Q53 458 93 543T206 675T371 722Q431 722 473 705ZM359 -72Q389 -65 418 -65Q446 -65 462
-77T479 -112Q479 -150 444 -169T366 -188Q316 -188 283 -177L287 -159Q308 -162 325 -162Q361 -162 388 -152T415 -117Q415 -89 373 -89Q345 -89 324 -96L358 5H385L359 -72Z" />
<glyph unicode="&#xc8;" glyph-name="Egrave" horiz-adv-x="609" d="M554 71T561 0Q493 3 332 3Q140 3 42 0V20Q78 22 94 28T117 51T123 106V602Q123 640 117 657T95 680T42 688V708Q140 705 332 705Q479 705 541 708Q534 642 534 590Q534 551 537 528H514Q507
593 496 624T459 670T380 685H297Q261 685 245 680T222 657T216 602V366H282Q317 366 336 382T361 421T372 478L375 498H398Q395 456 395 404V356Q395 305 401 214H378Q377 221 372 262T345 325T282 346H216V106Q216 68 222 51T244 29T297 23H370Q432 23 464 39T512
92T534 200H557Q554 173 554 128Q554 71 561 0ZM229 910T266 875Q273 869 302 843T373 785L366 772Q312 799 237 829Q186 848 165 861Q138 878 138 900Q138 910 144 919Q156 936 175 936Q189 936 205 926Q229 910 266 875Z" />
<glyph unicode="&#xc9;" glyph-name="Eacute" horiz-adv-x="609" d="M554 71T561 0Q493 3 332 3Q140 3 42 0V20Q78 22 94 28T117 51T123 106V602Q123 640 117 657T95 680T42 688V708Q140 705 332 705Q479 705 541 708Q534 642 534 590Q534 551 537 528H514Q507
593 496 624T459 670T380 685H297Q261 685 245 680T222 657T216 602V366H282Q317 366 336 382T361 421T372 478L375 498H398Q395 456 395 404V356Q395 305 401 214H378Q377 221 372 262T345 325T282 346H216V106Q216 68 222 51T244 29T297 23H370Q432 23 464 39T512
92T534 200H557Q554 173 554 128Q554 71 561 0ZM429 936T443 936Q462 936 474 919Q480 910 480 900Q480 878 453 861Q432 848 381 829Q306 799 252 772L245 785Q286 816 315 842T352 875Q389 910 413 926Q429 936 443 936Z" />
<glyph unicode="&#xca;" glyph-name="Ecircumflex" horiz-adv-x="609" d="M554 71T561 0Q493 3 332 3Q140 3 42 0V20Q78 22 94 28T117 51T123 106V602Q123 640 117 657T95 680T42 688V708Q140 705 332 705Q479 705 541 708Q534 642 534 590Q534 551 537 528H514Q507
593 496 624T459 670T380 685H297Q261 685 245 680T222 657T216 602V366H282Q317 366 336 382T361 421T372 478L375 498H398Q395 456 395 404V356Q395 305 401 214H378Q377 221 372 262T345 325T282 346H216V106Q216 68 222 51T244 29T297 23H370Q432 23 464 39T512
92T534 200H557Q554 173 554 128Q554 71 561 0ZM339 877T388 842T502 784L497 770Q437 783 379 802T286 840Q258 821 211 802T115 770L110 784Q174 806 223 841T297 916H315Q339 877 388 842Z" />
<glyph unicode="&#xcb;" glyph-name="Edieresis" horiz-adv-x="609" d="M554 71T561 0Q493 3 332 3Q140 3 42 0V20Q78 22 94 28T117 51T123 106V602Q123 640 117 657T95 680T42 688V708Q140 705 332 705Q479 705 541 708Q534 642 534 590Q534 551 537 528H514Q507
593 496 624T459 670T380 685H297Q261 685 245 680T222 657T216 602V366H282Q317 366 336 382T361 421T372 478L375 498H398Q395 456 395 404V356Q395 305 401 214H378Q377 221 372 262T345 325T282 346H216V106Q216 68 222 51T244 29T297 23H370Q432 23 464 39T512
92T534 200H557Q554 173 554 128Q554 71 561 0ZM223 888T240 871T258 830Q258 806 241 789T200 772Q176 772 159 789T142 830Q142 853 159 870T200 888Q223 888 240 871ZM435 888T452 871T470 830Q470 806 453 789T412 772Q388 772 371 789T354 830Q354 853 371
870T412 888Q435 888 452 871Z" />
<glyph unicode="&#xcc;" glyph-name="Igrave" horiz-adv-x="339" d="M297 688Q261 686 245 680T222 657T216 602V106Q216 68 222 51T244 28T297 20V0Q251 3 170 3Q84 3 42 0V20Q78 22 94 28T117 51T123 106V602Q123 640 117 657T95 680T42 688V708Q84 705 170
705Q250 705 297 708V688ZM93 910T130 875Q137 869 166 843T237 785L230 772Q176 799 101 829Q50 848 29 861Q2 878 2 900Q2 910 8 919Q20 936 39 936Q53 936 69 926Q93 910 130 875Z" />
<glyph unicode="&#xcd;" glyph-name="Iacute" horiz-adv-x="339" d="M297 688Q261 686 245 680T222 657T216 602V106Q216 68 222 51T244 28T297 20V0Q251 3 170 3Q84 3 42 0V20Q78 22 94 28T117 51T123 106V602Q123 640 117 657T95 680T42 688V708Q84 705 170
705Q250 705 297 708V688ZM293 936T307 936Q326 936 338 919Q344 910 344 900Q344 878 317 861Q296 848 245 829Q170 799 116 772L109 785Q150 816 179 842T216 875Q253 910 277 926Q293 936 307 936Z" />
<glyph unicode="&#xce;" glyph-name="Icircumflex" horiz-adv-x="339" d="M297 688Q261 686 245 680T222 657T216 602V106Q216 68 222 51T244 28T297 20V0Q251 3 170 3Q84 3 42 0V20Q78 22 94 28T117 51T123 106V602Q123 640 117 657T95 680T42 688V708Q84 705
170 705Q250 705 297 708V688ZM203 877T252 842T366 784L361 770Q301 783 243 802T150 840Q122 821 75 802T-21 770L-26 784Q38 806 87 841T161 916H179Q203 877 252 842Z" />
<glyph unicode="&#xcf;" glyph-name="Idieresis" horiz-adv-x="339" d="M297 688Q261 686 245 680T222 657T216 602V106Q216 68 222 51T244 28T297 20V0Q251 3 170 3Q84 3 42 0V20Q78 22 94 28T117 51T123 106V602Q123 640 117 657T95 680T42 688V708Q84 705 170
705Q250 705 297 708V688ZM87 888T104 871T122 830Q122 806 105 789T64 772Q40 772 23 789T6 830Q6 853 23 870T64 888Q87 888 104 871ZM299 888T316 871T334 830Q334 806 317 789T276 772Q252 772 235 789T218 830Q218 853 235 870T276 888Q299 888 316 871Z"
/>
<glyph unicode="&#xd0;" glyph-name="Eth" horiz-adv-x="723" d="M492 708T580 620T668 362Q668 253 625 171T501 45T306 0L248 1Q192 3 166 3Q84 3 42 0V20Q78 22 94 28T117 51T123 106V602Q123 640 117 657T95 680T42 688V708Q77 705 139 705L224 706Q292 708
315 708Q492 708 580 620ZM259 690T244 683T222 658T216 604V104Q216 68 222 50T243 25T291 18Q397 18 458 56T543 169T568 358Q568 473 541 545T454 654T290 690Q259 690 244 683ZM363 346H9V366H363V346Z" />
<glyph unicode="&#xd1;" glyph-name="Ntilde" horiz-adv-x="706" d="M670 688Q635 686 618 678T595 650T589 592V-5H566L146 644V116Q146 77 152 58T178 31T237 20V0Q201 3 135 3Q75 3 42 0V20Q77 22 94 30T117 58T123 116V602Q123 640 117 657T95 680T42 688V708Q75
705 135 705Q180 705 213 708L566 164V592Q566 631 560 650T534 677T475 688V708Q511 705 577 705Q637 705 670 708V688ZM318 902T340 892T393 862Q428 842 446 834T487 825Q533 825 549 881L564 878Q560 830 528 801T453 772Q428 772 406 782T353 812Q318 832
300 840T259 849Q236 849 221 837T197 793L182 796Q186 844 218 873T293 902Q318 902 340 892Z" />
<glyph unicode="&#xd2;" glyph-name="Ograve" horiz-adv-x="741" d="M466 722T537 679T648 555T688 360Q688 250 648 165T535 33T370 -14Q275 -14 204 29T93 153T53 348Q53 458 93 543T206 675T371 722Q466 722 537 679ZM303 704T255 660T180 535T153 352Q153
248 182 169T262 47T374 4Q438 4 486 48T561 173T588 356Q588 460 559 539T479 661T367 704Q303 704 255 660ZM292 910T329 875Q336 869 365 843T436 785L429 772Q375 799 300 829Q249 848 228 861Q201 878 201 900Q201 910 207 919Q219 936 238 936Q252 936 268
926Q292 910 329 875Z" />
<glyph unicode="&#xd3;" glyph-name="Oacute" horiz-adv-x="741" d="M466 722T537 679T648 555T688 360Q688 250 648 165T535 33T370 -14Q275 -14 204 29T93 153T53 348Q53 458 93 543T206 675T371 722Q466 722 537 679ZM303 704T255 660T180 535T153 352Q153
248 182 169T262 47T374 4Q438 4 486 48T561 173T588 356Q588 460 559 539T479 661T367 704Q303 704 255 660ZM492 936T506 936Q525 936 537 919Q543 910 543 900Q543 878 516 861Q495 848 444 829Q369 799 315 772L308 785Q349 816 378 842T415 875Q452 910 476
926Q492 936 506 936Z" />
<glyph unicode="&#xd4;" glyph-name="Ocircumflex" horiz-adv-x="741" d="M466 722T537 679T648 555T688 360Q688 250 648 165T535 33T370 -14Q275 -14 204 29T93 153T53 348Q53 458 93 543T206 675T371 722Q466 722 537 679ZM303 704T255 660T180 535T153 352Q153
248 182 169T262 47T374 4Q438 4 486 48T561 173T588 356Q588 460 559 539T479 661T367 704Q303 704 255 660ZM402 877T451 842T565 784L560 770Q500 783 442 802T349 840Q321 821 274 802T178 770L173 784Q237 806 286 841T360 916H378Q402 877 451 842Z" />
<glyph unicode="&#xd5;" glyph-name="Otilde" horiz-adv-x="741" d="M466 722T537 679T648 555T688 360Q688 250 648 165T535 33T370 -14Q275 -14 204 29T93 153T53 348Q53 458 93 543T206 675T371 722Q466 722 537 679ZM303 704T255 660T180 535T153 352Q153
248 182 169T262 47T374 4Q438 4 486 48T561 173T588 356Q588 460 559 539T479 661T367 704Q303 704 255 660ZM313 902T335 892T388 862Q423 842 441 834T482 825Q528 825 544 881L559 878Q555 830 523 801T448 772Q423 772 401 782T348 812Q313 832 295 840T254
849Q231 849 216 837T192 793L177 796Q181 844 213 873T288 902Q313 902 335 892Z" />
<glyph unicode="&#xd6;" glyph-name="Odieresis" horiz-adv-x="741" d="M466 722T537 679T648 555T688 360Q688 250 648 165T535 33T370 -14Q275 -14 204 29T93 153T53 348Q53 458 93 543T206 675T371 722Q466 722 537 679ZM303 704T255 660T180 535T153 352Q153
248 182 169T262 47T374 4Q438 4 486 48T561 173T588 356Q588 460 559 539T479 661T367 704Q303 704 255 660ZM286 888T303 871T321 830Q321 806 304 789T263 772Q239 772 222 789T205 830Q205 853 222 870T263 888Q286 888 303 871ZM498 888T515 871T533 830Q533
806 516 789T475 772Q451 772 434 789T417 830Q417 853 434 870T475 888Q498 888 515 871Z" />
<glyph unicode="&#xd7;" glyph-name="multiply" horiz-adv-x="510" d="M256 377L429 550L451 528L278 356L451 183L429 161L256 334L82 160L60 182L234 355L59 530L81 552L256 377Z" />
<glyph unicode="&#xd8;" glyph-name="Oslash" horiz-adv-x="741" d="M634 598T661 526T688 360Q688 250 648 165T535 33T370 -14Q255 -14 176 48L94 -73L73 -59L157 64Q107 111 80 183T53 348Q53 458 93 543T206 675T371 722Q486 722 565 660L643 773L662 760L583
645Q634 598 661 526ZM303 704T255 660T180 535T153 352Q153 216 203 122L524 609Q494 655 454 679T367 704Q303 704 255 660ZM438 4T486 48T561 173T588 356Q588 493 537 587L218 98Q247 53 287 29T374 4Q438 4 486 48Z" />
<glyph unicode="&#xd9;" glyph-name="Ugrave" horiz-adv-x="682" d="M655 688Q620 686 603 678T580 650T574 592V291Q574 219 565 168T533 79Q508 36 460 11T350 -14Q240 -14 182 40Q138 81 123 133T108 288V602Q108 640 102 657T80 680T27 688V708Q69 705 155
705Q236 705 282 708V688Q246 686 230 680T207 657T201 602V271Q201 191 212 138T257 53T359 21Q465 21 508 89T551 280V592Q551 646 532 666T460 688V708Q496 705 562 705Q622 705 655 708V688ZM275 910T312 875Q319 869 348 843T419 785L412 772Q358 799 283
829Q232 848 211 861Q184 878 184 900Q184 910 190 919Q202 936 221 936Q235 936 251 926Q275 910 312 875Z" />
<glyph unicode="&#xda;" glyph-name="Uacute" horiz-adv-x="682" d="M655 688Q620 686 603 678T580 650T574 592V291Q574 219 565 168T533 79Q508 36 460 11T350 -14Q240 -14 182 40Q138 81 123 133T108 288V602Q108 640 102 657T80 680T27 688V708Q69 705 155
705Q236 705 282 708V688Q246 686 230 680T207 657T201 602V271Q201 191 212 138T257 53T359 21Q465 21 508 89T551 280V592Q551 646 532 666T460 688V708Q496 705 562 705Q622 705 655 708V688ZM475 936T489 936Q508 936 520 919Q526 910 526 900Q526 878 499
861Q478 848 427 829Q352 799 298 772L291 785Q332 816 361 842T398 875Q435 910 459 926Q475 936 489 936Z" />
<glyph unicode="&#xdb;" glyph-name="Ucircumflex" horiz-adv-x="682" d="M655 688Q620 686 603 678T580 650T574 592V291Q574 219 565 168T533 79Q508 36 460 11T350 -14Q240 -14 182 40Q138 81 123 133T108 288V602Q108 640 102 657T80 680T27 688V708Q69 705
155 705Q236 705 282 708V688Q246 686 230 680T207 657T201 602V271Q201 191 212 138T257 53T359 21Q465 21 508 89T551 280V592Q551 646 532 666T460 688V708Q496 705 562 705Q622 705 655 708V688ZM385 877T434 842T548 784L543 770Q483 783 425 802T332 840Q304
821 257 802T161 770L156 784Q220 806 269 841T343 916H361Q385 877 434 842Z" />
<glyph unicode="&#xdc;" glyph-name="Udieresis" horiz-adv-x="682" d="M655 688Q620 686 603 678T580 650T574 592V291Q574 219 565 168T533 79Q508 36 460 11T350 -14Q240 -14 182 40Q138 81 123 133T108 288V602Q108 640 102 657T80 680T27 688V708Q69 705
155 705Q236 705 282 708V688Q246 686 230 680T207 657T201 602V271Q201 191 212 138T257 53T359 21Q465 21 508 89T551 280V592Q551 646 532 666T460 688V708Q496 705 562 705Q622 705 655 708V688ZM269 888T286 871T304 830Q304 806 287 789T246 772Q222 772
205 789T188 830Q188 853 205 870T246 888Q269 888 286 871ZM481 888T498 871T516 830Q516 806 499 789T458 772Q434 772 417 789T400 830Q400 853 417 870T458 888Q481 888 498 871Z" />
<glyph unicode="&#xdd;" glyph-name="Yacute" horiz-adv-x="591" d="M558 705T588 708V688Q568 683 549 663T508 599L351 288V106Q351 68 357 51T379 28T432 20V0Q386 3 305 3Q219 3 177 0V20Q213 22 229 28T252 51T258 106V256L55 631Q37 664 24 675T-3 687V708Q36
705 85 705Q182 705 225 708V687Q155 687 155 649Q155 634 165 614L331 295L459 549Q486 602 486 635Q486 663 464 675T398 688V708Q455 705 513 705Q558 705 588 708ZM427 936T441 936Q460 936 472 919Q478 910 478 900Q478 878 451 861Q430 848 379 829Q304 799
250 772L243 785Q284 816 313 842T350 875Q387 910 411 926Q427 936 441 936Z" />
<glyph unicode="&#xde;" glyph-name="Thorn" horiz-adv-x="580" d="M216 138V106Q216 68 222 51T244 28T297 20V0Q251 3 170 3Q84 3 42 0V20Q78 22 94 28T117 51T123 106V602Q123 640 117 657T95 680T42 688V708Q84 705 170 705Q250 705 297 708V688Q261 686 245
680T222 657T216 602V557L308 559Q386 559 440 534T522 464T549 364Q549 307 525 256T442 172T286 138H216ZM238 540T216 539V158H276Q374 158 411 212T449 358Q449 450 410 495T283 540Q238 540 216 539Z" />
<glyph unicode="&#xdf;" glyph-name="germandbls" horiz-adv-x="584" d="M379 782T425 744T471 639Q471 591 442 549T374 476T301 433Q366 418 421 382T509 293T542 175Q542 118 517 75T451 9T361 -14Q315 -14 277 8T239 72Q239 96 253 111T291 126Q314 126 329
113T344 77Q344 38 301 25Q304 16 319 9T353 1Q393 1 423 38T453 156Q453 247 411 323T287 424Q263 409 250 409Q242 409 236 413T230 426Q230 435 236 440T253 445Q268 445 289 437Q338 475 359 522T381 635Q381 698 356 732T283 767Q245 767 216 737T187 624V-11Q146
3 83 3Q53 3 21 0V21Q63 21 80 42T97 109V538Q97 666 149 724T294 782Q379 782 425 744Z" />
<glyph unicode="&#xe0;" glyph-name="agrave" horiz-adv-x="498" d="M100 -7T70 24T39 112Q39 157 63 186T121 232T210 268Q266 287 293 303T320 346V408Q320 466 296 487T227 509Q157 509 128 473Q148 468 161 452T175 412Q175 387 159 373T118 358Q90 358 76
375T62 418Q62 442 73 458T108 490Q132 507 169 518T250 529Q328 529 368 492Q393 469 401 437T410 351V73Q410 48 417 37T441 26Q453 26 463 31T486 47L497 30Q471 10 453 2T406 -7Q358 -7 339 17T320 82Q290 32 251 13T163 -7Q100 -7 70 24ZM273 33T320 109V305Q311
291 295 282T246 258Q208 242 185 228T144 188T127 124Q127 79 149 56T207 33Q273 33 320 109ZM131 820T145 820Q166 820 183 798Q200 775 223 729Q255 667 292 608L281 599Q246 635 217 662T180 696Q143 726 123 751Q109 770 109 785Q109 801 123 813Q131 820
145 820Z" />
<glyph unicode="&#xe1;" glyph-name="aacute" horiz-adv-x="498" d="M100 -7T70 24T39 112Q39 157 63 186T121 232T210 268Q266 287 293 303T320 346V408Q320 466 296 487T227 509Q157 509 128 473Q148 468 161 452T175 412Q175 387 159 373T118 358Q90 358 76
375T62 418Q62 442 73 458T108 490Q132 507 169 518T250 529Q328 529 368 492Q393 469 401 437T410 351V73Q410 48 417 37T441 26Q453 26 463 31T486 47L497 30Q471 10 453 2T406 -7Q358 -7 339 17T320 82Q290 32 251 13T163 -7Q100 -7 70 24ZM273 33T320 109V305Q311
291 295 282T246 258Q208 242 185 228T144 188T127 124Q127 79 149 56T207 33Q273 33 320 109ZM367 801T367 785Q367 770 353 751Q333 726 296 696Q289 690 260 663T195 599L184 608Q221 667 253 729Q276 775 293 798Q309 820 331 820Q345 820 353 813Q367 801
367 785Z" />
<glyph unicode="&#xe2;" glyph-name="acircumflex" horiz-adv-x="498" d="M100 -7T70 24T39 112Q39 157 63 186T121 232T210 268Q266 287 293 303T320 346V408Q320 466 296 487T227 509Q157 509 128 473Q148 468 161 452T175 412Q175 387 159 373T118 358Q90 358
76 375T62 418Q62 442 73 458T108 490Q132 507 169 518T250 529Q328 529 368 492Q393 469 401 437T410 351V73Q410 48 417 37T441 26Q453 26 463 31T486 47L497 30Q471 10 453 2T406 -7Q358 -7 339 17T320 82Q290 32 251 13T163 -7Q100 -7 70 24ZM273 33T320 109V305Q311
291 295 282T246 258Q208 242 185 228T144 188T127 124Q127 79 149 56T207 33Q273 33 320 109ZM276 751T320 705T422 630L414 616Q360 635 309 662T226 716Q201 689 161 662T78 616L70 630Q127 658 171 704T237 802H255Q276 751 320 705Z" />
<glyph unicode="&#xe3;" glyph-name="atilde" horiz-adv-x="498" d="M100 -7T70 24T39 112Q39 157 63 186T121 232T210 268Q266 287 293 303T320 346V408Q320 466 296 487T227 509Q157 509 128 473Q148 468 161 452T175 412Q175 387 159 373T118 358Q90 358 76
375T62 418Q62 442 73 458T108 490Q132 507 169 518T250 529Q328 529 368 492Q393 469 401 437T410 351V73Q410 48 417 37T441 26Q453 26 463 31T486 47L497 30Q471 10 453 2T406 -7Q358 -7 339 17T320 82Q290 32 251 13T163 -7Q100 -7 70 24ZM273 33T320 109V305Q311
291 295 282T246 258Q208 242 185 228T144 188T127 124Q127 79 149 56T207 33Q273 33 320 109ZM197 768T216 759T256 732Q276 717 290 710T323 702Q368 702 400 755L414 748Q399 695 368 670T296 645Q270 645 252 654T211 681Q190 697 176 704T144 712Q100 712
67 658L53 665Q68 718 99 743T172 768Q197 768 216 759Z" />
<glyph unicode="&#xe4;" glyph-name="adieresis" horiz-adv-x="498" d="M100 -7T70 24T39 112Q39 157 63 186T121 232T210 268Q266 287 293 303T320 346V408Q320 466 296 487T227 509Q157 509 128 473Q148 468 161 452T175 412Q175 387 159 373T118 358Q90 358
76 375T62 418Q62 442 73 458T108 490Q132 507 169 518T250 529Q328 529 368 492Q393 469 401 437T410 351V73Q410 48 417 37T441 26Q453 26 463 31T486 47L497 30Q471 10 453 2T406 -7Q358 -7 339 17T320 82Q290 32 251 13T163 -7Q100 -7 70 24ZM273 33T320 109V305Q311
291 295 282T246 258Q208 242 185 228T144 188T127 124Q127 79 149 56T207 33Q273 33 320 109ZM164 743T181 726T199 685Q199 661 182 644T141 627Q117 627 100 644T83 685Q83 708 100 725T141 743Q164 743 181 726ZM376 743T393 726T411 685Q411 661 394 644T353
627Q329 627 312 644T295 685Q295 708 312 725T353 743Q376 743 393 726Z" />
<glyph unicode="&#xe5;" glyph-name="aring" horiz-adv-x="498" d="M100 -7T70 24T39 112Q39 157 63 186T121 232T210 268Q266 287 293 303T320 346V408Q320 466 296 487T227 509Q157 509 128 473Q148 468 161 452T175 412Q175 387 159 373T118 358Q90 358 76
375T62 418Q62 442 73 458T108 490Q132 507 169 518T250 529Q328 529 368 492Q393 469 401 437T410 351V73Q410 48 417 37T441 26Q453 26 463 31T486 47L497 30Q471 10 453 2T406 -7Q358 -7 339 17T320 82Q290 32 251 13T163 -7Q100 -7 70 24ZM273 33T320 109V305Q311
291 295 282T246 258Q208 242 185 228T144 188T127 124Q127 79 149 56T207 33Q273 33 320 109ZM286 791T314 766T343 700Q343 659 315 634T246 608Q206 608 178 633T150 700Q150 741 178 766T246 791Q286 791 314 766ZM220 770T199 751T178 699Q178 666 198 648T246
629Q273 629 294 647T315 699Q315 732 294 751T246 770Q220 770 199 751Z" />
<glyph unicode="&#xe6;" glyph-name="ae" horiz-adv-x="745" d="M590 28T622 51T676 128L696 120Q679 65 636 26T529 -14Q460 -14 413 19T343 115Q304 42 260 18T163 -7Q100 -7 70 24T39 112Q39 157 63 186T121 232T210 268Q266 287 293 303T320 346V408Q320 466
296 487T227 509Q157 509 128 473Q148 468 161 452T175 412Q175 387 159 373T118 358Q90 358 76 375T62 418Q62 442 73 458T108 490Q132 507 169 518T250 529Q328 529 368 492Q379 481 386 468Q438 529 525 529Q610 529 656 475T702 309H411Q408 281 408 245Q408
179 428 130T480 54T549 28Q590 28 622 51ZM477 510T447 464T410 328H606Q608 406 586 458T521 510Q477 510 447 464ZM320 305Q311 291 295 282T246 258Q208 242 185 228T144 188T127 124Q127 79 149 56T207 33Q273 33 320 109V305Z" />
<glyph unicode="&#xe7;" glyph-name="ccedilla" horiz-adv-x="486" d="M346 529T395 497Q442 466 442 420Q442 394 427 379T389 364Q366 364 350 377T334 414Q334 435 346 449T376 469Q366 487 341 499T286 511Q249 511 217 488T164 410T143 266Q143 142 183 86T287
29Q330 29 368 54T432 132L451 125Q434 68 388 27T267 -14Q205 -14 155 18T75 110T46 251Q46 332 75 395T158 493T279 529Q346 529 395 497ZM239 -72Q269 -65 298 -65Q326 -65 342 -77T359 -112Q359 -150 324 -169T246 -188Q196 -188 163 -177L167 -159Q188 -162
205 -162Q241 -162 268 -152T295 -117Q295 -89 253 -89Q225 -89 204 -96L238 6H265L239 -72Z" />
<glyph unicode="&#xe8;" glyph-name="egrave" horiz-adv-x="506" d="M463 120Q445 65 396 26T276 -14Q205 -14 153 18T74 109T46 245Q46 332 74 396T153 494T272 529Q362 529 410 475T459 309H146Q143 281 143 245Q143 179 164 130T221 55T296 28Q344 28 381 51T443
128L463 120ZM221 510T187 464T145 328H363Q365 406 341 458T268 510Q221 510 187 464ZM156 820T170 820Q191 820 208 798Q225 775 248 729Q280 667 317 608L306 599Q271 635 242 662T205 696Q168 726 148 751Q134 770 134 785Q134 801 148 813Q156 820 170 820Z"
/>
<glyph unicode="&#xe9;" glyph-name="eacute" horiz-adv-x="506" d="M463 120Q445 65 396 26T276 -14Q205 -14 153 18T74 109T46 245Q46 332 74 396T153 494T272 529Q362 529 410 475T459 309H146Q143 281 143 245Q143 179 164 130T221 55T296 28Q344 28 381 51T443
128L463 120ZM221 510T187 464T145 328H363Q365 406 341 458T268 510Q221 510 187 464ZM392 801T392 785Q392 770 378 751Q358 726 321 696Q314 690 285 663T220 599L209 608Q246 667 278 729Q301 775 318 798Q334 820 356 820Q370 820 378 813Q392 801 392 785Z"
/>
<glyph unicode="&#xea;" glyph-name="ecircumflex" horiz-adv-x="506" d="M463 120Q445 65 396 26T276 -14Q205 -14 153 18T74 109T46 245Q46 332 74 396T153 494T272 529Q362 529 410 475T459 309H146Q143 281 143 245Q143 179 164 130T221 55T296 28Q344 28
381 51T443 128L463 120ZM221 510T187 464T145 328H363Q365 406 341 458T268 510Q221 510 187 464ZM301 751T345 705T447 630L439 616Q385 635 334 662T251 716Q226 689 186 662T103 616L95 630Q152 658 196 704T262 802H280Q301 751 345 705Z" />
<glyph unicode="&#xeb;" glyph-name="edieresis" horiz-adv-x="506" d="M463 120Q445 65 396 26T276 -14Q205 -14 153 18T74 109T46 245Q46 332 74 396T153 494T272 529Q362 529 410 475T459 309H146Q143 281 143 245Q143 179 164 130T221 55T296 28Q344 28 381
51T443 128L463 120ZM221 510T187 464T145 328H363Q365 406 341 458T268 510Q221 510 187 464ZM189 743T206 726T224 685Q224 661 207 644T166 627Q142 627 125 644T108 685Q108 708 125 725T166 743Q189 743 206 726ZM401 743T418 726T436 685Q436 661 419 644T378
627Q354 627 337 644T320 685Q320 708 337 725T378 743Q401 743 418 726Z" />
<glyph unicode="&#xec;" glyph-name="igrave" horiz-adv-x="293" d="M195 93Q195 52 212 37T271 21V0Q179 4 150 4Q121 4 29 0V21Q71 21 88 36T105 93V406Q105 452 88 473T29 494V515Q61 512 91 512Q154 512 195 526V93ZM26 820T40 820Q61 820 78 798Q95 775 118
729Q150 667 187 608L176 599Q141 635 112 662T75 696Q38 726 18 751Q4 770 4 785Q4 801 18 813Q26 820 40 820Z" />
<glyph unicode="&#xed;" glyph-name="iacute" horiz-adv-x="293" d="M195 93Q195 52 212 37T271 21V0Q179 4 150 4Q121 4 29 0V21Q71 21 88 36T105 93V406Q105 452 88 473T29 494V515Q61 512 91 512Q154 512 195 526V93ZM262 801T262 785Q262 770 248 751Q228
726 191 696Q184 690 155 663T90 599L79 608Q116 667 148 729Q171 775 188 798Q204 820 226 820Q240 820 248 813Q262 801 262 785Z" />
<glyph unicode="&#xee;" glyph-name="icircumflex" horiz-adv-x="293" d="M195 93Q195 52 212 37T271 21V0Q179 4 150 4Q121 4 29 0V21Q71 21 88 36T105 93V406Q105 452 88 473T29 494V515Q61 512 91 512Q154 512 195 526V93ZM171 751T215 705T317 630L309 616Q255
635 204 662T121 716Q96 689 56 662T-27 616L-35 630Q22 658 66 704T132 802H150Q171 751 215 705Z" />
<glyph unicode="&#xef;" glyph-name="idieresis" horiz-adv-x="293" d="M195 93Q195 52 212 37T271 21V0Q179 4 150 4Q121 4 29 0V21Q71 21 88 36T105 93V406Q105 452 88 473T29 494V515Q61 512 91 512Q154 512 195 526V93ZM59 743T76 726T94 685Q94 661 77 644T36
627Q12 627 -5 644T-22 685Q-22 708 -5 725T36 743Q59 743 76 726ZM271 743T288 726T306 685Q306 661 289 644T248 627Q224 627 207 644T190 685Q190 708 207 725T248 743Q271 743 288 726Z" />
<glyph unicode="&#xf0;" glyph-name="eth" horiz-adv-x="554" d="M498 545T498 302Q498 199 467 128T383 22T270 -14Q168 -14 107 55T46 255Q46 324 71 387T146 489T264 529Q345 529 384 477Q356 594 278 670L97 582L88 600L262 685Q209 729 130 765L138 782Q230
745 294 700L435 769L444 751L312 687Q498 545 498 302ZM325 6T364 74T403 302Q403 325 401 365Q391 448 356 478T271 508Q213 508 178 448T143 253Q143 126 177 66T265 6Q325 6 364 74Z" />
<glyph unicode="&#xf1;" glyph-name="ntilde" horiz-adv-x="597" d="M435 529T471 491Q490 471 498 441T506 360V93Q506 52 523 37T582 21V0Q490 4 462 4Q434 4 350 0V21Q387 21 401 36T416 93V382Q416 438 400 467T335 497Q294 497 262 473T213 408T195 315V93Q195
52 209 37T261 21V0Q177 4 149 4Q121 4 29 0V21Q71 21 88 36T105 93V406Q105 452 88 473T29 494V515Q61 512 91 512Q154 512 195 526V408Q220 472 264 500T365 529Q435 529 471 491ZM257 768T276 759T316 732Q336 717 350 710T383 702Q428 702 460 755L474 748Q459
695 428 670T356 645Q330 645 312 654T271 681Q250 697 236 704T204 712Q160 712 127 658L113 665Q128 718 159 743T232 768Q257 768 276 759Z" />
<glyph unicode="&#xf2;" glyph-name="ograve" horiz-adv-x="548" d="M376 529T438 462T501 257Q501 120 439 53T274 -14Q172 -14 110 53T47 257Q47 394 109 461T274 529Q376 529 438 462ZM214 509T179 448T144 257Q144 128 179 67T274 6Q334 6 369 67T404 257Q404
386 369 447T274 509Q214 509 179 448ZM162 820T176 820Q197 820 214 798Q231 775 254 729Q286 667 323 608L312 599Q277 635 248 662T211 696Q174 726 154 751Q140 770 140 785Q140 801 154 813Q162 820 176 820Z" />
<glyph unicode="&#xf3;" glyph-name="oacute" horiz-adv-x="548" d="M376 529T438 462T501 257Q501 120 439 53T274 -14Q172 -14 110 53T47 257Q47 394 109 461T274 529Q376 529 438 462ZM214 509T179 448T144 257Q144 128 179 67T274 6Q334 6 369 67T404 257Q404
386 369 447T274 509Q214 509 179 448ZM398 801T398 785Q398 770 384 751Q364 726 327 696Q320 690 291 663T226 599L215 608Q252 667 284 729Q307 775 324 798Q340 820 362 820Q376 820 384 813Q398 801 398 785Z" />
<glyph unicode="&#xf4;" glyph-name="ocircumflex" horiz-adv-x="548" d="M376 529T438 462T501 257Q501 120 439 53T274 -14Q172 -14 110 53T47 257Q47 394 109 461T274 529Q376 529 438 462ZM214 509T179 448T144 257Q144 128 179 67T274 6Q334 6 369 67T404
257Q404 386 369 447T274 509Q214 509 179 448ZM307 751T351 705T453 630L445 616Q391 635 340 662T257 716Q232 689 192 662T109 616L101 630Q158 658 202 704T268 802H286Q307 751 351 705Z" />
<glyph unicode="&#xf5;" glyph-name="otilde" horiz-adv-x="548" d="M376 529T438 462T501 257Q501 120 439 53T274 -14Q172 -14 110 53T47 257Q47 394 109 461T274 529Q376 529 438 462ZM214 509T179 448T144 257Q144 128 179 67T274 6Q334 6 369 67T404 257Q404
386 369 447T274 509Q214 509 179 448ZM228 768T247 759T287 732Q307 717 321 710T354 702Q399 702 431 755L445 748Q430 695 399 670T327 645Q301 645 283 654T242 681Q221 697 207 704T175 712Q131 712 98 658L84 665Q99 718 130 743T203 768Q228 768 247 759Z"
/>
<glyph unicode="&#xf6;" glyph-name="odieresis" horiz-adv-x="548" d="M376 529T438 462T501 257Q501 120 439 53T274 -14Q172 -14 110 53T47 257Q47 394 109 461T274 529Q376 529 438 462ZM214 509T179 448T144 257Q144 128 179 67T274 6Q334 6 369 67T404 257Q404
386 369 447T274 509Q214 509 179 448ZM195 743T212 726T230 685Q230 661 213 644T172 627Q148 627 131 644T114 685Q114 708 131 725T172 743Q195 743 212 726ZM407 743T424 726T442 685Q442 661 425 644T384 627Q360 627 343 644T326 685Q326 708 343 725T384
743Q407 743 424 726Z" />
<glyph unicode="&#xf7;" glyph-name="divide" horiz-adv-x="649" d="M347 554T363 538T380 499Q380 476 364 460T324 444Q301 444 285 460T269 499Q269 522 285 538T324 554Q347 554 363 538ZM574 340H73V370H574V340ZM347 266T363 250T380 211Q380 188 364 172T324
155Q301 155 285 171T269 211Q269 234 285 250T324 266Q347 266 363 250Z" />
<glyph unicode="&#xf8;" glyph-name="oslash" horiz-adv-x="548" d="M432 468Q501 397 501 257Q501 120 439 53T274 -14Q191 -14 134 30L64 -73L43 -59L115 47Q47 117 47 257Q47 394 109 461T274 529Q359 529 414 484L485 587L504 574L432 468ZM214 509T179 448T144
257Q144 164 163 104L374 437Q341 509 274 509Q214 509 179 448ZM334 6T369 67T404 257Q404 350 385 410L175 75Q208 6 274 6Q334 6 369 67Z" />
<glyph unicode="&#xf9;" glyph-name="ugrave" horiz-adv-x="581" d="M483 108Q483 62 500 41T559 20V-1Q528 2 497 2Q434 2 393 -12V106Q369 44 325 15T229 -14Q161 -14 125 24Q107 44 100 75T92 155V406Q92 452 75 473T16 494V515Q47 512 78 512Q141 512 182
526V133Q182 95 186 72T207 33T258 18Q296 18 327 42T375 107T393 199V406Q393 452 376 473T317 494V515Q348 512 379 512Q442 512 483 526V108ZM165 820T179 820Q200 820 217 798Q234 775 257 729Q289 667 326 608L315 599Q280 635 251 662T214 696Q177 726 157
751Q143 770 143 785Q143 801 157 813Q165 820 179 820Z" />
<glyph unicode="&#xfa;" glyph-name="uacute" horiz-adv-x="581" d="M483 108Q483 62 500 41T559 20V-1Q528 2 497 2Q434 2 393 -12V106Q369 44 325 15T229 -14Q161 -14 125 24Q107 44 100 75T92 155V406Q92 452 75 473T16 494V515Q47 512 78 512Q141 512 182
526V133Q182 95 186 72T207 33T258 18Q296 18 327 42T375 107T393 199V406Q393 452 376 473T317 494V515Q348 512 379 512Q442 512 483 526V108ZM401 801T401 785Q401 770 387 751Q367 726 330 696Q323 690 294 663T229 599L218 608Q255 667 287 729Q310 775 327
798Q343 820 365 820Q379 820 387 813Q401 801 401 785Z" />
<glyph unicode="&#xfb;" glyph-name="ucircumflex" horiz-adv-x="581" d="M483 108Q483 62 500 41T559 20V-1Q528 2 497 2Q434 2 393 -12V106Q369 44 325 15T229 -14Q161 -14 125 24Q107 44 100 75T92 155V406Q92 452 75 473T16 494V515Q47 512 78 512Q141 512
182 526V133Q182 95 186 72T207 33T258 18Q296 18 327 42T375 107T393 199V406Q393 452 376 473T317 494V515Q348 512 379 512Q442 512 483 526V108ZM310 751T354 705T456 630L448 616Q394 635 343 662T260 716Q235 689 195 662T112 616L104 630Q161 658 205 704T271
802H289Q310 751 354 705Z" />
<glyph unicode="&#xfc;" glyph-name="udieresis" horiz-adv-x="581" d="M483 108Q483 62 500 41T559 20V-1Q528 2 497 2Q434 2 393 -12V106Q369 44 325 15T229 -14Q161 -14 125 24Q107 44 100 75T92 155V406Q92 452 75 473T16 494V515Q47 512 78 512Q141 512 182
526V133Q182 95 186 72T207 33T258 18Q296 18 327 42T375 107T393 199V406Q393 452 376 473T317 494V515Q348 512 379 512Q442 512 483 526V108ZM198 743T215 726T233 685Q233 661 216 644T175 627Q151 627 134 644T117 685Q117 708 134 725T175 743Q198 743 215
726ZM410 743T427 726T445 685Q445 661 428 644T387 627Q363 627 346 644T329 685Q329 708 346 725T387 743Q410 743 427 726Z" />
<glyph unicode="&#xfd;" glyph-name="yacute" horiz-adv-x="504" d="M462 512T494 515V495Q474 493 459 477T429 425L265 -5L231 -92Q212 -141 188 -162Q173 -176 152 -182T110 -188Q80 -188 61 -172T42 -128Q42 -104 56 -90T95 -75Q117 -75 131 -87T146 -122Q146
-152 119 -167Q121 -168 125 -168Q180 -168 210 -90L245 1L64 438Q47 472 30 483T-4 494V515Q39 509 94 509Q144 509 224 515V494Q188 494 172 488T155 459Q155 438 167 410L287 112L398 401Q409 431 409 447Q409 470 391 481T334 495V515Q387 512 418 512Q462
512 494 515ZM375 801T375 785Q375 770 361 751Q341 726 304 696Q297 690 268 663T203 599L192 608Q229 667 261 729Q284 775 301 798Q317 820 339 820Q353 820 361 813Q375 801 375 785Z" />
<glyph unicode="&#xfe;" glyph-name="thorn" horiz-adv-x="559" d="M379 529T421 500T488 415T512 281Q512 204 488 137T412 28T283 -14Q245 -14 214 1T166 40V-88Q166 -129 190 -144T262 -160V-181L239 -180Q146 -177 118 -177Q94 -177 10 -181V-160Q47 -160
61 -147T76 -98V663Q76 709 59 730T0 751V772Q32 769 62 769Q125 769 166 783V420Q188 472 230 500T326 529Q379 529 421 500ZM415 9T415 267Q415 499 299 499Q254 499 218 467T166 373V73Q180 44 207 27T272 9Q415 9 415 267Z" />
<glyph unicode="&#xff;" glyph-name="ydieresis" horiz-adv-x="504" d="M462 512T494 515V495Q474 493 459 477T429 425L265 -5L231 -92Q212 -141 188 -162Q173 -176 152 -182T110 -188Q80 -188 61 -172T42 -128Q42 -104 56 -90T95 -75Q117 -75 131 -87T146 -122Q146
-152 119 -167Q121 -168 125 -168Q180 -168 210 -90L245 1L64 438Q47 472 30 483T-4 494V515Q39 509 94 509Q144 509 224 515V494Q188 494 172 488T155 459Q155 438 167 410L287 112L398 401Q409 431 409 447Q409 470 391 481T334 495V515Q387 512 418 512Q462
512 494 515ZM172 743T189 726T207 685Q207 661 190 644T149 627Q125 627 108 644T91 685Q91 708 108 725T149 743Q172 743 189 726ZM384 743T401 726T419 685Q419 661 402 644T361 627Q337 627 320 644T303 685Q303 708 320 725T361 743Q384 743 401 726Z" />
<glyph unicode="&#x2013;" glyph-name="endash" horiz-adv-x="571" d="M512 249H59V289H512V249Z" />
<glyph unicode="&#x2014;" glyph-name="emdash" horiz-adv-x="862" d="M803 249H59V289H803V249Z" />
<glyph unicode="&#x2018;" glyph-name="quoteleft" horiz-adv-x="248" d="M92 470T72 502Q55 529 55 568Q55 618 80 658T158 722L167 704Q136 691 114 663T91 606Q91 594 94 585Q110 598 131 598Q158 598 176 581T195 534Q195 507 177 489T131 470Q92 470 72 502Z" />
<glyph unicode="&#x2019;" glyph-name="quoteright" horiz-adv-x="245" d="M157 722T177 690Q194 663 194 624Q194 574 169 534T91 470L82 488Q113 501 135 529T158 586Q158 598 155 607Q139 594 118 594Q91 594 73 611T54 658Q54 685 72 703T118 722Q157 722 177 690Z" />
<glyph unicode="&#x201a;" glyph-name="quotesinglbase" horiz-adv-x="261" d="M165 114T185 82Q202 55 202 16Q202 -34 177 -74T99 -138L90 -120Q121 -107 143 -79T166 -22Q166 -10 163 -1Q147 -14 126 -14Q99 -14 81 3T62 50Q62 77 80 95T126 114Q165 114 185 82Z" />
<glyph unicode="&#x201c;" glyph-name="quotedblleft" horiz-adv-x="418" d="M262 470T242 502Q225 529 225 568Q225 618 250 658T328 722L337 704Q306 691 284 663T261 606Q261 594 264 585Q280 598 301 598Q328 598 346 581T365 534Q365 507 347 489T301 470Q262
470 242 502ZM92 470T72 502Q55 529 55 568Q55 618 80 658T158 722L167 704Q136 691 114 663T91 606Q91 594 94 585Q110 598 131 598Q158 598 176 581T195 534Q195 507 177 489T131 470Q92 470 72 502Z" />
<glyph unicode="&#x201d;" glyph-name="quotedblright" horiz-adv-x="415" d="M157 722T177 690Q194 663 194 624Q194 574 169 534T91 470L82 488Q113 501 135 529T158 586Q158 598 155 607Q139 594 118 594Q91 594 73 611T54 658Q54 685 72 703T118 722Q157 722
177 690ZM327 722T347 690Q364 663 364 624Q364 574 339 534T261 470L252 488Q283 501 305 529T328 586Q328 598 325 607Q309 594 288 594Q261 594 243 611T224 658Q224 685 242 703T288 722Q327 722 347 690Z" />
<glyph unicode="&#x201e;" glyph-name="quotedblbase" horiz-adv-x="431" d="M165 114T185 82Q202 55 202 16Q202 -34 177 -74T99 -138L90 -120Q121 -107 143 -79T166 -22Q166 -10 163 -1Q147 -14 126 -14Q99 -14 81 3T62 50Q62 77 80 95T126 114Q165 114 185
82ZM335 114T355 82Q372 55 372 16Q372 -34 347 -74T269 -138L260 -120Q291 -107 313 -79T336 -22Q336 -10 333 -1Q317 -14 296 -14Q269 -14 251 3T232 50Q232 77 250 95T296 114Q335 114 355 82Z" />
<glyph unicode="&#x2022;" glyph-name="bullet" horiz-adv-x="441" d="M259 412T292 393T344 341T363 269Q363 230 344 198T292 146T220 127Q181 127 149 146T97 197T78 269Q78 308 97 341T148 393T220 412Q259 412 292 393Z" />
<glyph unicode="&#x2039;" glyph-name="guilsinglleft" horiz-adv-x="327" d="M279 522Q244 429 204 369T107 261Q161 214 202 151T279 -7L262 -14Q219 81 164 147T32 257V258Q109 301 164 367T262 529L279 522Z" />
<glyph unicode="&#x203a;" glyph-name="guilsinglright" horiz-adv-x="327" d="M108 434T163 368T295 258V257Q218 214 163 148T65 -14L48 -7Q83 86 123 146T220 254Q166 301 125 364T48 522L65 529Q108 434 163 368Z" />
</font>
</defs>
</svg>
